Уважаемый Гость!
Вы можете поддержать проект и зарегистрироваться у наших партнеров - онлайн-стратегия MyLands. При регистрации в игре Вы получите код, который сможете активировать после регистрации на pirat.ca и получить 1000 дублонов.

Ваш код:
d49a3625bbdee1b82b14274f97c375f8b2b2ee4c
 
     

(Melodic Death Metal) Flayst - Burning Eden - 2016 [FLAC, image+.cue, lossless]

Ответить на тему
 
Автор
Сообщение

Пост 20-Дек-2016 21:46

[Q] 

Дядя Вова

Гроза морей

-Flayst - Burning Eden-- Год издания: 2016
Страна: Switzerland (Wallisellen, Zürich)
Жанр: Melodic Death Metal
Продолжительность: 00:38:35-Лейбл издания: Independent
Тип альбома: Master
Страна-выпуска диска: October 10th, 2016, Switzerland
Формат: FLAC
Битрейт аудио: lossless
Тип рипа: image+.cue
Наличие сканов в содержимом раздачи: да-
01. Entering the Quiet Garden
02. Burning Eden
03. Until the End of Time
04. Leap into the Unknown
05. Liberation
06. Revenge
07. Neverlasting Dream
08. Caught in the Undertow
09. Exit
10. Through Your Eyes
-
Exact Audio Copy V1.1 from 23. June 2015
EAC extraction logfile from 2. December 2016, 7:01
Flayst / Burning Eden
Used drive : HL-DT-STBD-RE BT11F Adapter: 1 ID: 0
Read mode : Secure
Utilize accurate stream : Yes
Defeat audio cache : Yes
Make use of C2 pointers : No
Read offset correction : 667
Overread into Lead-In and Lead-Out : No
Fill up missing offset samples with silence : Yes
Delete leading and trailing silent blocks : No
Null samples used in CRC calculations : Yes
Used interface : Native Win32 interface for Win NT & 2000
Used output format : User Defined Encoder
Selected bitrate : 128 kBit/s
Quality : High
Add ID3 tag : No
Command line compressor : C:\Program Files (x86)\FLAC\flac.exe
Additional command line options : -V -8 -T "Genre=%genre%" -T "Artist=%artist%" -T "Title=%title%" -T "Album=%albumtitle%" -T "Date=%year%" -T "Tracknumber=%tracknr%" -T "Comment=%comment%" %source%
TOC of the extracted CD
Track | Start | Length | Start sector | End sector
---------------------------------------------------------
1 | 0:00.00 | 1:23.21 | 0 | 6245
2 | 1:23.21 | 3:36.53 | 6246 | 22498
3 | 4:59.74 | 3:53.29 | 22499 | 40002
4 | 8:53.28 | 0:31.63 | 40003 | 42390
5 | 9:25.16 | 3:46.63 | 42391 | 59403
6 | 13:12.04 | 4:48.48 | 59404 | 81051
7 | 18:00.52 | 6:07.18 | 81052 | 108594
8 | 24:07.70 | 4:37.64 | 108595 | 129433
9 | 28:45.59 | 5:33.29 | 129434 | 154437
10 | 34:19.13 | 4:34.04 | 154438 | 174991
Range status and errors
Selected range
Filename D:\VovanKoperativ_Ripped_Music\Flayst - Burning Eden (FLAC) (2016)\Flayst - Burning Eden.wav
Peak level 97.3 %
Extraction speed 3.7 X
Range quality 100.0 %
Test CRC 67BB7A1B
Copy CRC 67BB7A1B
Copy OK
No errors occurred
AccurateRip summary
Track 1 not present in database
Track 2 not present in database
Track 3 not present in database
Track 4 not present in database
Track 5 not present in database
Track 6 not present in database
Track 7 not present in database
Track 8 not present in database
Track 9 not present in database
Track 10 not present in database
None of the tracks are present in the AccurateRip database
End of status report
---- CUETools DB Plugin V2.1.6
[CTDB TOCID: V6LOj8GKknTbrwYy179xaJJwxtE-] disk not present in database
Submit result: V6LOj8GKknTbrwYy179xaJJwxtE- has been uploaded
==== Log checksum 928562060939B6313A7C00BC3A5953C75F4999AF8A2FC746922C5621DF688AF8 ====
-
REM GENRE Melodic Death Metal
REM DATE 2016
REM DISCID 7D091D0A
REM COMMENT 2016, Switzerland, First Press, DR5
PERFORMER "Flayst"
TITLE "Burning Eden"
FILE "Flayst - Burning Eden.flac" WAVE
TRACK 01 AUDIO
TITLE "Entering the Quiet Garden"
INDEX 01 00:00:00
TRACK 02 AUDIO
TITLE "Burning Eden"
INDEX 01 01:23:21
TRACK 03 AUDIO
TITLE "Until the End of Time"
INDEX 01 04:59:74
TRACK 04 AUDIO
TITLE "Leap into the Unknown"
INDEX 01 08:53:28
TRACK 05 AUDIO
TITLE "Liberation"
INDEX 01 09:25:16
TRACK 06 AUDIO
TITLE "Revenge"
INDEX 01 13:12:04
TRACK 07 AUDIO
TITLE "(N)everlasting Dream"
INDEX 01 18:00:52
TRACK 08 AUDIO
TITLE "Caught in the Undertow"
INDEX 01 24:07:70
TRACK 09 AUDIO
TITLE "Exit"
INDEX 01 28:45:59
TRACK 10 AUDIO
TITLE "Through Your Eyes"
INDEX 01 34:19:13
-
-
--Работаю не за Спасибо , а за ИДЕЮ.--
Download / Скачать

Хотите скачать бесплатно? Зарегистрируйтесь на сайте (ссылка на регистрацию). Pirat.ca - самый быстрый торрент трекер в рунете!

Как скачивать  ·   Что такое торрент  ·   Рейтинг и ограничения

pan_tera

Корсар

Пост 03-Янв-2017 16:16 (спустя 13 дней)

[Q] 

Любителей тяжмета не густо?!
[Профиль]  [ЛС] 
Показать сообщения:    
Ответить на тему

Текущее время: Сегодня 19:44

Часовой пояс: GMT + 4



Вы не можете начинать темы
Вы не можете отвечать на сообщения
Вы не можете редактировать свои сообщения
Вы не можете удалять свои сообщения
Вы не можете голосовать в опросах
Вы не можете прикреплять файлы к сообщениям
Вы не можете скачивать файлы

▼ Вниз