Уважаемый Гость!
Вы можете поддержать проект и зарегистрироваться у наших партнеров - онлайн-стратегия MyLands. При регистрации в игре Вы получите код, который сможете активировать после регистрации на pirat.ca и получить 1000 дублонов.

Ваш код:
bf76b4fde44c7189cfb4d32d5b204facc1d6d492
 
     

(Melodic Power Metal) Stratovarius - Collector's Package (3CD) - 2015 [FLAC, image+cue, Lossless]

Ответить на тему
 
Автор
Сообщение

Пост 26-Дек-2016 16:22

[Q] 

sergej644

-Stratovarius - Collector's Package (3CD)--
Год издания: 2015
Страна: Finland
Жанр: Melodic Power Metal
Продолжительность: 03:02:23-Лейбл издания: e.a.r. music
Страна-выпуска диска: Germany
Номер по каталогу: 0210398EMU-Формат: FLAC
Битрейт аудио: Lossless
Тип рипа: image +.cue
Наличие сканов в содержимом раздачи: да
-

01.Deep Unknown(4:28)
02.Falling Star(4:33)
03.King of Nothing(6:43)
04.Blind(5:29)
05.Winter Skies(5:50)
06.Forever Is Today(4:41)
07.Higher We Go(3:48)
08.Somehow Precious(5:38)
09.Emancipation Suite, Part 1: Dusk(6:58)
10.Emancipation Suite, Part 2: Dawn(3:41)
11.When Mountains Fall(3:12)
12.Deep Unknown (Mikko Raita vinyl mix)(4:46)

01.Darkest Hours(4:11)
02.Under Flaming Skies(3:52)
03.Infernal Maze(5:33)
04.Fairness Justified(4:21)
05.The Game Never Ends(3:54)
06.Lifetime in a Moment(6:39)
07.Move the Mountain(5:34)
08.Event Horizon(4:24)
09.Elysium(18:07)

01.Abandon(4:52)
02.Unbreakable(4:37)
03.Stand My Ground(4:14)
04.Halcyon Days(5:31)
05.Fantasy(4:19)
06.Out of the Fog(6:58)
07.Castles in the Air(6:03)
08.Dragons(4:05)
09.One Must Fall(4:28)
10.Fireborn(4:45)
11.Hunter(3:31)
12.If the Story Is Over(6:07)
13.Nemesis(6:34)
-
Код:
Exact Audio Copy V1.1 from 23. June 2015
EAC extraction logfile from 31. July 2015, 22:52
Stratovarius / Collector's Package (Polaris 2009)
Used drive  : HL-DT-STDVDRAM GE20NU11   Adapter: 1  ID: 2
Read mode               : Secure
Utilize accurate stream : Yes
Defeat audio cache      : Yes
Make use of C2 pointers : No
Read offset correction                      : 667
Overread into Lead-In and Lead-Out          : No
Fill up missing offset samples with silence : Yes
Delete leading and trailing silent blocks   : No
Null samples used in CRC calculations       : Yes
Used interface                              : Native Win32 interface for Win NT & 2000
Used output format : Internal WAV Routines
Sample format      : 44.100 Hz; 16 Bit; Stereo
TOC of the extracted CD
     Track |   Start  |  Length  | Start sector | End sector
    ---------------------------------------------------------
        1  |  0:00.00 |  4:28.27 |         0    |    20126
        2  |  4:28.27 |  4:33.06 |     20127    |    40607
        3  |  9:01.33 |  6:43.34 |     40608    |    70866
        4  | 15:44.67 |  5:28.55 |     70867    |    95521
        5  | 21:13.47 |  5:50.15 |     95522    |   121786
        6  | 27:03.62 |  4:40.65 |    121787    |   142851
        7  | 31:44.52 |  3:47.62 |    142852    |   159938
        8  | 35:32.39 |  5:37.44 |    159939    |   185257
        9  | 41:10.08 |  6:57.39 |    185258    |   216571
       10  | 48:07.47 |  3:40.50 |    216572    |   233121
       11  | 51:48.22 |  3:11.44 |    233122    |   247490
       12  | 54:59.66 |  4:45.39 |    247491    |   268904
Range status and errors
Selected range
     Filename D:\EAC\vknish\Stratovarius - Collector's Package (Polaris 2009).wav
     Peak level 100.0 %
     Extraction speed 4.7 X
     Range quality 100.0 %
     Test CRC 54564661
     Copy CRC 54564661
     Copy OK
No errors occurred
AccurateRip summary
Track  1  accurately ripped (confidence 15)  [DE1260EE]  (AR v2)
Track  2  accurately ripped (confidence 15)  [F84E0AF3]  (AR v2)
Track  3  accurately ripped (confidence 15)  [9F32CCDF]  (AR v2)
Track  4  accurately ripped (confidence 15)  [85F26577]  (AR v2)
Track  5  accurately ripped (confidence 15)  [03263FFF]  (AR v2)
Track  6  accurately ripped (confidence 15)  [3306B8AA]  (AR v2)
Track  7  accurately ripped (confidence 15)  [65003943]  (AR v2)
Track  8  accurately ripped (confidence 15)  [5CB89597]  (AR v2)
Track  9  accurately ripped (confidence 15)  [9596F2E9]  (AR v2)
Track 10  accurately ripped (confidence 15)  [00693E56]  (AR v2)
Track 11  accurately ripped (confidence 15)  [6BE7B6DB]  (AR v2)
Track 12  accurately ripped (confidence 14)  [0A7BE94A]  (AR v2)
All tracks accurately ripped
End of status report
---- CUETools DB Plugin V2.1.6
[CTDB TOCID: VZSNWuHzZQ7g0Z8.suG4hAtFgWc-] found
Submit result: VZSNWuHzZQ7g0Z8.suG4hAtFgWc- has been confirmed
Track | CTDB Status
  1   | (25/27) Accurately ripped
  2   | (25/27) Accurately ripped
  3   | (26/27) Accurately ripped
  4   | (25/27) Accurately ripped
  5   | (25/27) Accurately ripped
  6   | (25/27) Accurately ripped
  7   | (25/27) Accurately ripped
  8   | (25/27) Accurately ripped
  9   | (25/27) Accurately ripped
10   | (25/27) Accurately ripped
11   | (25/27) Accurately ripped
12   | (25/27) Accurately ripped
Код:
Exact Audio Copy V1.1 from 23. June 2015
EAC extraction logfile from 1. August 2015, 5:49
Stratovarius / Collector's Package (Elysium 2011)
Used drive  : HL-DT-STDVDRAM GE20NU11   Adapter: 1  ID: 2
Read mode               : Secure
Utilize accurate stream : Yes
Defeat audio cache      : Yes
Make use of C2 pointers : No
Read offset correction                      : 667
Overread into Lead-In and Lead-Out          : No
Fill up missing offset samples with silence : Yes
Delete leading and trailing silent blocks   : No
Null samples used in CRC calculations       : Yes
Used interface                              : Native Win32 interface for Win NT & 2000
Used output format : Internal WAV Routines
Sample format      : 44.100 Hz; 16 Bit; Stereo
TOC of the extracted CD
     Track |   Start  |  Length  | Start sector | End sector
    ---------------------------------------------------------
        1  |  0:00.00 |  4:11.06 |         0    |    18830
        2  |  4:11.06 |  3:51.51 |     18831    |    36206
        3  |  8:02.57 |  5:33.20 |     36207    |    61201
        4  | 13:36.02 |  4:20.61 |     61202    |    80762
        5  | 17:56.63 |  3:53.48 |     80763    |    98285
        6  | 21:50.36 |  6:38.50 |     98286    |   128185
        7  | 28:29.11 |  5:33.42 |    128186    |   153202
        8  | 34:02.53 |  4:23.42 |    153203    |   172969
        9  | 38:26.20 | 18:07.14 |    172970    |   254508
Range status and errors
Selected range
     Filename D:\EAC\vknish\Stratovarius - Collector's Package (Elysium 2011).wav
     Peak level 100.0 %
     Extraction speed 6.8 X
     Range quality 100.0 %
     Test CRC 767FA836
     Copy CRC 767FA836
     Copy OK
No errors occurred
AccurateRip summary
Track  1  accurately ripped (confidence 25)  [2724E73B]  (AR v2)
Track  2  accurately ripped (confidence 25)  [9FC6FCFF]  (AR v2)
Track  3  accurately ripped (confidence 25)  [D4D48FC6]  (AR v2)
Track  4  accurately ripped (confidence 25)  [CC411CDC]  (AR v2)
Track  5  accurately ripped (confidence 25)  [BF1673C4]  (AR v2)
Track  6  accurately ripped (confidence 25)  [AFC7C415]  (AR v2)
Track  7  accurately ripped (confidence 25)  [6EE6B423]  (AR v2)
Track  8  accurately ripped (confidence 25)  [41C7E485]  (AR v2)
Track  9  accurately ripped (confidence 25)  [03253463]  (AR v2)
All tracks accurately ripped
End of status report
---- CUETools DB Plugin V2.1.6
[CTDB TOCID: vQ_yEp5vNdKnKMPCYitPNeBbIa8-] found
Submit result: already submitted
Track | CTDB Status
  1   | (76/76) Accurately ripped
  2   | (76/76) Accurately ripped
  3   | (76/76) Accurately ripped
  4   | (76/76) Accurately ripped
  5   | (76/76) Accurately ripped
  6   | (76/76) Accurately ripped
  7   | (76/76) Accurately ripped
  8   | (76/76) Accurately ripped
  9   | (76/76) Accurately ripped
Код:
Exact Audio Copy V1.1 from 23. June 2015
EAC extraction logfile from 1. August 2015, 6:24
Stratovarius / Collector's Package (Nemesis 2013)
Used drive  : HL-DT-STDVDRAM GE20NU11   Adapter: 1  ID: 2
Read mode               : Secure
Utilize accurate stream : Yes
Defeat audio cache      : Yes
Make use of C2 pointers : No
Read offset correction                      : 667
Overread into Lead-In and Lead-Out          : No
Fill up missing offset samples with silence : Yes
Delete leading and trailing silent blocks   : No
Null samples used in CRC calculations       : Yes
Used interface                              : Native Win32 interface for Win NT & 2000
Used output format : Internal WAV Routines
Sample format      : 44.100 Hz; 16 Bit; Stereo
TOC of the extracted CD
     Track |   Start  |  Length  | Start sector | End sector
    ---------------------------------------------------------
        1  |  0:00.00 |  4:51.68 |         0    |    21892
        2  |  4:51.68 |  4:36.40 |     21893    |    42632
        3  |  9:28.33 |  4:14.24 |     42633    |    61706
        4  | 13:42.57 |  5:31.17 |     61707    |    86548
        5  | 19:13.74 |  4:19.09 |     86549    |   105982
        6  | 23:33.08 |  6:58.01 |    105983    |   137333
        7  | 30:31.09 |  6:02.71 |    137334    |   164554
        8  | 36:34.05 |  4:04.61 |    164555    |   182915
        9  | 40:38.66 |  4:28.09 |    182916    |   203024
       10  | 45:07.00 |  4:45.20 |    203025    |   224419
       11  | 49:52.20 |  3:31.35 |    224420    |   240279
       12  | 53:23.55 |  6:06.41 |    240280    |   267770
       13  | 59:30.21 |  6:33.49 |    267771    |   297294
Range status and errors
Selected range
     Filename D:\EAC\vknish\Stratovarius - Collector's Package (Nemesis 2013).wav
     Peak level 100.0 %
     Extraction speed 7.0 X
     Range quality 100.0 %
     Test CRC 4511D7EB
     Copy CRC 4511D7EB
     Copy OK
No errors occurred
AccurateRip summary
Track  1  accurately ripped (confidence 27)  [4EBDAE89]  (AR v2)
Track  2  accurately ripped (confidence 27)  [5A887C7C]  (AR v2)
Track  3  accurately ripped (confidence 27)  [F6A2B1B9]  (AR v2)
Track  4  accurately ripped (confidence 27)  [6F3300E0]  (AR v2)
Track  5  accurately ripped (confidence 27)  [287CCDA9]  (AR v2)
Track  6  accurately ripped (confidence 27)  [BC1C6553]  (AR v2)
Track  7  accurately ripped (confidence 27)  [3E0A9623]  (AR v2)
Track  8  accurately ripped (confidence 27)  [626B519C]  (AR v2)
Track  9  accurately ripped (confidence 27)  [EF49CFE4]  (AR v2)
Track 10  accurately ripped (confidence 27)  [02B9D4A6]  (AR v2)
Track 11  accurately ripped (confidence 27)  [44EE8C72]  (AR v2)
Track 12  accurately ripped (confidence 27)  [0FB22252]  (AR v2)
Track 13  accurately ripped (confidence 26)  [404C5D86]  (AR v2)
All tracks accurately ripped
End of status report
---- CUETools DB Plugin V2.1.6
[CTDB TOCID: q.aWqeT4cuwzREKCZihTgmoMaNg-] found
Submit result: q.aWqeT4cuwzREKCZihTgmoMaNg- has been confirmed
Track | CTDB Status
  1   | (41/41) Accurately ripped
  2   | (41/41) Accurately ripped
  3   | (41/41) Accurately ripped
  4   | (41/41) Accurately ripped
  5   | (41/41) Accurately ripped
  6   | (41/41) Accurately ripped
  7   | (41/41) Accurately ripped
  8   | (41/41) Accurately ripped
  9   | (41/41) Accurately ripped
10   | (41/41) Accurately ripped
11   | (41/41) Accurately ripped
12   | (41/41) Accurately ripped
13   | (41/41) Accurately ripped
Код:
REM GENRE "Melodic Power Metal"
REM DATE 2015
REM DISCID 970E010C
REM COMMENT "ExactAudioCopy v1.1"
PERFORMER "Stratovarius"
TITLE "Collector's Package (Polaris 2009)"
FILE "Stratovarius - Collector's Package (Polaris 2009).flac" WAVE
  TRACK 01 AUDIO
    TITLE "Deep Unknown"
    PERFORMER "Stratovarius"
    INDEX 01 00:00:00
  TRACK 02 AUDIO
    TITLE "Falling Star"
    PERFORMER "Stratovarius"
    INDEX 00 04:26:45
    INDEX 01 04:28:27
  TRACK 03 AUDIO
    TITLE "King of Nothing"
    PERFORMER "Stratovarius"
    INDEX 00 08:59:10
    INDEX 01 09:01:33
  TRACK 04 AUDIO
    TITLE "Blind"
    PERFORMER "Stratovarius"
    INDEX 00 15:42:56
    INDEX 01 15:44:67
  TRACK 05 AUDIO
    TITLE "Winter Skies"
    PERFORMER "Stratovarius"
    INDEX 00 21:10:07
    INDEX 01 21:13:47
  TRACK 06 AUDIO
    TITLE "Forever Is Today"
    PERFORMER "Stratovarius"
    INDEX 01 27:03:62
  TRACK 07 AUDIO
    TITLE "Higher We Go"
    PERFORMER "Stratovarius"
    INDEX 00 31:42:02
    INDEX 01 31:44:52
  TRACK 08 AUDIO
    TITLE "Somehow Precious"
    PERFORMER "Stratovarius"
    INDEX 00 35:29:37
    INDEX 01 35:32:39
  TRACK 09 AUDIO
    TITLE "Emancipation Suite, Part 1: Dusk"
    PERFORMER "Stratovarius"
    INDEX 00 41:07:59
    INDEX 01 41:10:08
  TRACK 10 AUDIO
    TITLE "Emancipation Suite, Part 2: Dawn"
    PERFORMER "Stratovarius"
    INDEX 01 48:07:47
  TRACK 11 AUDIO
    TITLE "When Mountains Fall"
    PERFORMER "Stratovarius"
    INDEX 00 51:45:51
    INDEX 01 51:48:22
  TRACK 12 AUDIO
    TITLE "Deep Unknown (Mikko Raita vinyl mix)"
    PERFORMER "Stratovarius"
    INDEX 01 54:59:66
Код:
REM GENRE "Melodic Power Metal"
REM DATE 2015
REM DISCID 650D4109
REM COMMENT "ExactAudioCopy v1.1"
PERFORMER "Stratovarius"
TITLE "Collector's Package (Elysium 2011)"
FILE "Stratovarius - Collector's Package (Elysium 2011).flac" WAVE
  TRACK 01 AUDIO
    TITLE "Darkest Hours"
    PERFORMER "Stratovarius"
    INDEX 01 00:00:00
  TRACK 02 AUDIO
    TITLE "Under Flaming Skies"
    PERFORMER "Stratovarius"
    INDEX 01 04:11:06
  TRACK 03 AUDIO
    TITLE "Infernal Maze"
    PERFORMER "Stratovarius"
    INDEX 01 08:02:57
  TRACK 04 AUDIO
    TITLE "Fairness Justified"
    PERFORMER "Stratovarius"
    INDEX 01 13:36:02
  TRACK 05 AUDIO
    TITLE "The Game Never Ends"
    PERFORMER "Stratovarius"
    INDEX 01 17:56:63
  TRACK 06 AUDIO
    TITLE "Lifetime in a Moment"
    PERFORMER "Stratovarius"
    INDEX 01 21:50:36
  TRACK 07 AUDIO
    TITLE "Move the Mountain"
    PERFORMER "Stratovarius"
    INDEX 01 28:29:11
  TRACK 08 AUDIO
    TITLE "Event Horizon"
    PERFORMER "Stratovarius"
    INDEX 01 34:02:53
  TRACK 09 AUDIO
    TITLE "Elysium"
    PERFORMER "Stratovarius"
    INDEX 01 38:26:20
Код:
REM GENRE "Melodic Power Metal"
REM DATE 2015
REM DISCID B10F7B0D
REM COMMENT "ExactAudioCopy v1.1"
PERFORMER "Stratovarius"
TITLE "Collector's Package (Nemesis 2013)"
FILE "Stratovarius - Collector's Package (Nemesis 2013).flac" WAVE
  TRACK 01 AUDIO
    TITLE "Abandon"
    PERFORMER "Stratovarius"
    INDEX 01 00:00:00
  TRACK 02 AUDIO
    TITLE "Unbreakable"
    PERFORMER "Stratovarius"
    INDEX 01 04:51:68
  TRACK 03 AUDIO
    TITLE "Stand My Ground"
    PERFORMER "Stratovarius"
    INDEX 01 09:28:33
  TRACK 04 AUDIO
    TITLE "Halcyon Days"
    PERFORMER "Stratovarius"
    INDEX 01 13:42:57
  TRACK 05 AUDIO
    TITLE "Fantasy"
    PERFORMER "Stratovarius"
    INDEX 00 19:12:29
    INDEX 01 19:13:74
  TRACK 06 AUDIO
    TITLE "Out of the Fog"
    PERFORMER "Stratovarius"
    INDEX 01 23:33:08
  TRACK 07 AUDIO
    TITLE "Castles in the Air"
    PERFORMER "Stratovarius"
    INDEX 01 30:31:09
  TRACK 08 AUDIO
    TITLE "Dragons"
    PERFORMER "Stratovarius"
    INDEX 01 36:34:05
  TRACK 09 AUDIO
    TITLE "One Must Fall"
    PERFORMER "Stratovarius"
    INDEX 01 40:38:66
  TRACK 10 AUDIO
    TITLE "Fireborn"
    PERFORMER "Stratovarius"
    INDEX 00 45:05:69
    INDEX 01 45:07:00
  TRACK 11 AUDIO
    TITLE "Hunter"
    PERFORMER "Stratovarius"
    INDEX 01 49:52:20
  TRACK 12 AUDIO
    TITLE "If the Story Is Over"
    PERFORMER "Stratovarius"
    INDEX 00 53:19:49
    INDEX 01 53:23:55
  TRACK 13 AUDIO
    TITLE "Nemesis"
    PERFORMER "Stratovarius"
    INDEX 01 59:30:21
--
Download / Скачать

Хотите скачать бесплатно? Зарегистрируйтесь на сайте (ссылка на регистрацию). Pirat.ca - самый быстрый торрент трекер в рунете!

Как скачивать  ·   Что такое торрент  ·   Рейтинг и ограничения

Показать сообщения:    
Ответить на тему

Текущее время: Сегодня 12:35

Часовой пояс: GMT + 4



Вы не можете начинать темы
Вы не можете отвечать на сообщения
Вы не можете редактировать свои сообщения
Вы не можете удалять свои сообщения
Вы не можете голосовать в опросах
Вы не можете прикреплять файлы к сообщениям
Вы не можете скачивать файлы

▼ Вниз