Уважаемый Гость!
Вы можете поддержать проект и зарегистрироваться у наших партнеров - онлайн-стратегия MyLands. При регистрации в игре Вы получите код, который сможете активировать после регистрации на pirat.ca и получить 1000 дублонов.

Ваш код:
6ce94c87b14c77f4c9d9415fb160accb369c92d9
 
     

(Black Metal) Happy Days - Save Yourself - 2016 [FLAC, image+.cue, lossless]

Ответить на тему
 
Автор
Сообщение

Пост 28-Дек-2016 00:53

[Q] 

Дядя Вова

Гроза морей

-Happy Days - Save Yourself-- Год издания: 2016
Страна: Sarasota, Florida, USA
Жанр: Black Metal
Продолжительность: 00:54:21-Лейбл издания: Talheim Records
Тип альбома: Master
Страна-выпуска диска: 25 Aug 2016 Austria
Номер по каталогу: [TR036CD]
Формат: FLAC
Битрейт аудио: lossless
Тип рипа: image+.cue
Наличие сканов в содержимом раздачи: да-
01. Dwell in the Insanity
02. Die to Forget
03. Serenity Theft
04. Will We Make It?
05. One Can Dream
06. Let Me In...
07. Malice Callous
08. Freedom of Silence
09. Your Starchild
10. Save Yourself
-
Exact Audio Copy V1.2 from 12. August 2016
EAC extraction logfile from 25. November 2016, 21:42
Happy Days / Save Yourself
Used drive : PLEXTOR DVDR PX-891SA Adapter: 1 ID: 0
Read mode : Secure
Utilize accurate stream : Yes
Defeat audio cache : Yes
Make use of C2 pointers : No
Read offset correction : 6
Overread into Lead-In and Lead-Out : No
Fill up missing offset samples with silence : Yes
Delete leading and trailing silent blocks : No
Null samples used in CRC calculations : Yes
Used interface : Native Win32 interface for Win NT & 2000
Used output format : User Defined Encoder
Selected bitrate : 896 kBit/s
Quality : High
Add ID3 tag : No
Command line compressor : C:\Program Files (x86)\Exact Audio Copy\Flac\flac.exe
Additional command line options : -6 -V %source%
TOC of the extracted CD
Track | Start | Length | Start sector | End sector
---------------------------------------------------------
1 | 0:00.00 | 5:45.12 | 0 | 25886
2 | 5:45.12 | 5:30.07 | 25887 | 50643
3 | 11:15.19 | 5:09.07 | 50644 | 73825
4 | 16:24.26 | 6:18.07 | 73826 | 102182
5 | 22:42.33 | 4:55.07 | 102183 | 124314
6 | 27:37.40 | 4:49.07 | 124315 | 145996
7 | 32:26.47 | 4:25.07 | 145997 | 165878
8 | 36:51.54 | 6:31.07 | 165879 | 195210
9 | 43:22.61 | 4:43.07 | 195211 | 216442
10 | 48:05.68 | 6:15.01 | 216443 | 244568
Range status and errors
Selected range
Filename D:\MeTaLMaDNeSS.TeaM\Happy Days (US) - Save Yourself (Digipak)\Happy Days - Save Yourself.wav
Peak level 100.0 %
Extraction speed 8.5 X
Range quality 99.9 %
Test CRC 30E39073
Copy CRC 30E39073
Copy OK
No errors occurred
AccurateRip summary
Track 1 not present in database
Track 2 not present in database
Track 3 not present in database
Track 4 not present in database
Track 5 not present in database
Track 6 not present in database
Track 7 not present in database
Track 8 not present in database
Track 9 not present in database
Track 10 not present in database
None of the tracks are present in the AccurateRip database
End of status report
---- CUETools DB Plugin V2.1.6
[CTDB TOCID: KEpGKx7PyIs0fVdr.Z3PbPU8R74-] disk not present in database
Submit result: KEpGKx7PyIs0fVdr.Z3PbPU8R74- has been uploaded
==== Log checksum 486D783DA95F480922F40674D989AA3463FD4C0C8AF10DE896D0F6D6C8D45385 ====
-
REM GENRE Black Metal
REM DATE 2016
REM DISCID A10CBC0A
REM COMMENT 25 Aug 2016 Austria
PERFORMER "Happy Days"
TITLE "Save Yourself"
FILE "Happy Days - Save Yourself.flac" WAVE
TRACK 01 AUDIO
TITLE "Dwell in the Insanity "
INDEX 01 00:00:00
TRACK 02 AUDIO
TITLE "Die to Forget"
INDEX 00 05:43:12
INDEX 01 05:45:12
TRACK 03 AUDIO
TITLE "Serenity Theft"
INDEX 00 11:13:19
INDEX 01 11:15:19
TRACK 04 AUDIO
TITLE "Will We Make It?"
INDEX 00 16:22:26
INDEX 01 16:24:26
TRACK 05 AUDIO
TITLE "One Can Dream"
INDEX 00 22:40:33
INDEX 01 22:42:33
TRACK 06 AUDIO
TITLE "Let Me In..."
INDEX 00 27:35:40
INDEX 01 27:37:40
TRACK 07 AUDIO
TITLE "Malice Callous"
INDEX 00 32:24:47
INDEX 01 32:26:47
TRACK 08 AUDIO
TITLE "Freedom of Silence"
INDEX 00 36:49:54
INDEX 01 36:51:54
TRACK 09 AUDIO
TITLE "Your Starchild"
INDEX 00 43:20:61
INDEX 01 43:22:61
TRACK 10 AUDIO
TITLE "Save Yourself"
INDEX 00 48:03:68
INDEX 01 48:05:68
-
-
--Работаю не за Спасибо , а за ИДЕЮ -"Каждый релиз , гвоздь в гроб флудераста".
--
Download / Скачать

Хотите скачать бесплатно? Зарегистрируйтесь на сайте (ссылка на регистрацию). Pirat.ca - самый быстрый торрент трекер в рунете!

Как скачивать  ·   Что такое торрент  ·   Рейтинг и ограничения

Пост 28-Дек-2016 01:16 (спустя 23 минуты)

Топик был перенесен из форума Rock (Трюм) в форум Metal
sergej644
 
Показать сообщения:    
Ответить на тему

Текущее время: Сегодня 01:15

Часовой пояс: GMT + 4



Вы не можете начинать темы
Вы не можете отвечать на сообщения
Вы не можете редактировать свои сообщения
Вы не можете удалять свои сообщения
Вы не можете голосовать в опросах
Вы не можете прикреплять файлы к сообщениям
Вы не можете скачивать файлы

▼ Вниз