Уважаемый Гость!
Вы можете поддержать проект и зарегистрироваться у наших партнеров - онлайн-стратегия MyLands. При регистрации в игре Вы получите код, который сможете активировать после регистрации на pirat.ca и получить 1000 дублонов.

Ваш код:
b35b3ec45a7bd3f86315766471edc285be832af4
 
     

(Atmospheric Doom Metal) Clouds - Departe - 2016 [FLAC, image+.cue, lossless]

Ответить на тему
 
Автор
Сообщение

Пост 28-Дек-2016 02:11

[Q] 

Дядя Вова

Гроза морей

-Clouds - Departe-- Год издания: 2016
Страна: International
Жанр: Atmospheric Doom Metal
Продолжительность: 01:05:55-Тип альбома: Master
Формат: FLAC
Битрейт аудио: lossless
Тип рипа: image+.cue
Наличие сканов в содержимом раздачи: да-
01. How Can I Be There (12:29)
02. Migration (8:39)
03. In The Ocean Of My Tears (10:54)
04. In All This Dark (12:57)
05. Driftwood (10:34)
06. I Gave My Heart Away (10:21)
-
Exact Audio Copy V1.1 from 23. June 2015
EAC extraction logfile from 21. November 2016, 22:44
Clouds / Departe
Used drive : ASUS DRW-1612BL Adapter: 2 ID: 0
Read mode : Secure
Utilize accurate stream : Yes
Defeat audio cache : Yes
Make use of C2 pointers : No
Read offset correction : 6
Overread into Lead-In and Lead-Out : No
Fill up missing offset samples with silence : Yes
Delete leading and trailing silent blocks : No
Null samples used in CRC calculations : Yes
Used interface : Installed external ASPI interface
Used output format : User Defined Encoder
Selected bitrate : 128 kBit/s
Quality : High
Add ID3 tag : No
Command line compressor : C:\Program Files\EAC\Exact Audio Copy\Flac\flac.exe
Additional command line options : -V -8 -T "Date=%year%" -T "Genre=%genre%" %source%
TOC of the extracted CD
Track | Start | Length | Start sector | End sector
---------------------------------------------------------
1 | 0:00.00 | 12:29.15 | 0 | 56189
2 | 12:29.15 | 8:38.51 | 56190 | 95090
3 | 21:07.66 | 10:54.09 | 95091 | 144149
4 | 32:02.00 | 12:57.06 | 144150 | 202430
5 | 44:59.06 | 10:34.23 | 202431 | 250003
6 | 55:33.29 | 10:21.14 | 250004 | 296592
Range status and errors
Selected range
Filename C:\darkbrides\Clouds - Departe.wav
Peak level 87.9 %
Extraction speed 4.8 X
Range quality 100.0 %
Test CRC 33A02FF6
Copy CRC 33A02FF6
Copy OK
No errors occurred
AccurateRip summary
Track 1 not present in database
Track 2 not present in database
Track 3 not present in database
Track 4 not present in database
Track 5 not present in database
Track 6 not present in database
None of the tracks are present in the AccurateRip database
End of status report
---- CUETools DB Plugin V2.1.6
[CTDB TOCID: 32xnca1WfTNrZ2jgqb27xG5xMUc-] disk not present in database
Submit result: 32xnca1WfTNrZ2jgqb27xG5xMUc- has been uploaded
==== Log checksum EB9A6E397EE302280831065C07C963384A19C4D809856A2A4DBF2C0D0F6161CC ====
-
REM GENRE "Doom Metal"
REM DATE 2016
REM DISCID 490F7206
REM COMMENT "ExactAudioCopy v1.1"
PERFORMER "Clouds"
TITLE "Departe"
FILE "Clouds - Departe.flac" WAVE
TRACK 01 AUDIO
TITLE "How Can I Be There"
PERFORMER "Clouds"
INDEX 01 00:00:00
TRACK 02 AUDIO
TITLE "Migration"
PERFORMER "Clouds"
INDEX 01 12:29:15
TRACK 03 AUDIO
TITLE "In The Ocean Of My Tears"
PERFORMER "Clouds"
INDEX 01 21:07:66
TRACK 04 AUDIO
TITLE "In All This Dark"
PERFORMER "Clouds"
INDEX 01 32:02:00
TRACK 05 AUDIO
TITLE "Driftwood"
PERFORMER "Clouds"
INDEX 01 44:59:06
TRACK 06 AUDIO
TITLE "I Gave My Heart Away"
PERFORMER "Clouds"
INDEX 01 55:33:29
-
-
--Работаю не за Спасибо , а за ИДЕЮ -"Каждый релиз , гвоздь в гроб флудераста".
--
Download / Скачать

Хотите скачать бесплатно? Зарегистрируйтесь на сайте (ссылка на регистрацию). Pirat.ca - самый быстрый торрент трекер в рунете!

Как скачивать  ·   Что такое торрент  ·   Рейтинг и ограничения

Пост 28-Дек-2016 12:24 (спустя 10 часов)

Топик был перенесен из форума Rock (Трюм) в форум Metal
sergej644
 
Показать сообщения:    
Ответить на тему

Текущее время: Сегодня 19:00

Часовой пояс: GMT + 4



Вы не можете начинать темы
Вы не можете отвечать на сообщения
Вы не можете редактировать свои сообщения
Вы не можете удалять свои сообщения
Вы не можете голосовать в опросах
Вы не можете прикреплять файлы к сообщениям
Вы не можете скачивать файлы

▼ Вниз