Уважаемый Гость!
Вы можете поддержать проект и зарегистрироваться у наших партнеров - онлайн-стратегия MyLands. При регистрации в игре Вы получите код, который сможете активировать после регистрации на pirat.ca и получить 1000 дублонов.

Ваш код:
b35b3ec45a7bd3f86315766471edc285be832af4
 
     

(Death/Black/Doom Metal) Soulburn - Earthless Pagan Spirit-(Limited Edition) - 2016 [FLAC, image+.cue, lossless]

Ответить на тему
 
Автор
Сообщение

Пост 30-Дек-2016 01:34

[Q] 

Дядя Вова

Гроза морей

Soulburn - Earthless Pagan Spirit-(Limited Edition) Год издания: 2016
Страна: Oldenzaal, Twente, Overijssel, Netherlands
Жанр: Death/Black/Doom Metal
Продолжительность: 00:51:15
Лейбл издания: Century Media Records
Тип альбома: Master
Страна-выпуска диска: November 18th, 2016 - Germany
Номер по каталогу: 88985362612
Формат: FLAC
Битрейт аудио: lossless
Тип рипа: image+.cue
Наличие сканов в содержимом раздачи: да
01. Where Splendid Corpses Are Towering Towards the Sun (06:02)
02. The Blood Ascendant (06:57)
03. Howling at the Heart of Death (06:25)
04. As Cold as Heavens' Slain (05:42)
05. Withering Nights (05:46)
06. The Torch (05:10)
07. Spirited Asunder (07:26)
08. Diary of a Reaper (Outro) (03:42)
09. The Last Monument of God (Bonus Track) (04:05)
Exact Audio Copy V1.1 from 23. June 2015
EAC extraction logfile from 26. November 2016, 17:38
Soulburn / Earthless Pagan Spirit (Limited Edition)
Used drive : HP DVD Writer 1170d Adapter: 1 ID: 1
Read mode : Secure
Utilize accurate stream : Yes
Defeat audio cache : Yes
Make use of C2 pointers : No
Read offset correction : 6
Overread into Lead-In and Lead-Out : No
Fill up missing offset samples with silence : Yes
Delete leading and trailing silent blocks : No
Null samples used in CRC calculations : Yes
Used interface : Native Win32 interface for Win NT & 2000
Used output format : User Defined Encoder
Selected bitrate : 1024 kBit/s
Quality : High
Add ID3 tag : No
Command line compressor : C:\Program Files (x86)\Exact Audio Copy\Flac\flac.exe
Additional command line options : -V -8 -T "Date=%year%" -T "Genre=%genre%" %source%
TOC of the extracted CD
Track | Start | Length | Start sector | End sector
---------------------------------------------------------
1 | 0:00.00 | 6:02.12 | 0 | 27161
2 | 6:02.12 | 6:57.18 | 27162 | 58454
3 | 12:59.30 | 6:24.59 | 58455 | 87313
4 | 19:24.14 | 5:42.02 | 87314 | 112965
5 | 25:06.16 | 5:46.33 | 112966 | 138948
6 | 30:52.49 | 5:09.53 | 138949 | 162176
7 | 36:02.27 | 7:25.42 | 162177 | 195593
8 | 43:27.69 | 3:42.05 | 195594 | 212248
9 | 47:09.74 | 4:05.36 | 212249 | 230659
Range status and errors
Selected range
Filename C:\EAC\Ungern666\Soulburn - Earthless Pagan Spirit (Limited Edition).wav
Peak level 98.8 %
Extraction speed 5.7 X
Range quality 100.0 %
Test CRC 17880C8D
Copy CRC 17880C8D
Copy OK
No errors occurred
AccurateRip summary
Track 1 not present in database
Track 2 not present in database
Track 3 not present in database
Track 4 not present in database
Track 5 not present in database
Track 6 not present in database
Track 7 not present in database
Track 8 not present in database
Track 9 not present in database
None of the tracks are present in the AccurateRip database
End of status report
---- CUETools DB Plugin V2.1.6
[CTDB TOCID: 0y2AfmWmiSiqSvf44yGvU.Y3Oys-] found
Submit result: already submitted
Track | CTDB Status
1 | (2/2) Accurately ripped
2 | (2/2) Accurately ripped
3 | (2/2) Accurately ripped
4 | (2/2) Accurately ripped
5 | (2/2) Accurately ripped
6 | (2/2) Accurately ripped
7 | (2/2) Accurately ripped
8 | (2/2) Accurately ripped
9 | (2/2) Accurately ripped
==== Log checksum D380D28F56086C527FCFF10A808B45D528D61EBCE5FDD697996EA9FED7F9C7B5 ====
REM DATE 2016
REM DISCID 790C0309
REM COMMENT "ExactAudioCopy v1.1"
PERFORMER "Soulburn"
TITLE "Earthless Pagan Spirit (Limited Edition)"
FILE "Soulburn - Earthless Pagan Spirit (Limited Edition).flac" WAVE
TRACK 01 AUDIO
TITLE "Where Splendid Corpses Are Towering Towards The Sun"
PERFORMER "Soulburn"
FLAGS DCP
INDEX 01 00:00:00
TRACK 02 AUDIO
TITLE "The Blood Ascendant"
PERFORMER "Soulburn"
FLAGS DCP
INDEX 00 05:58:58
INDEX 01 06:02:12
TRACK 03 AUDIO
TITLE "Howling At The Heart Of Death"
PERFORMER "Soulburn"
FLAGS DCP
INDEX 00 12:56:01
INDEX 01 12:59:30
TRACK 04 AUDIO
TITLE "As Cold As Heavens Slain"
PERFORMER "Soulburn"
FLAGS DCP
INDEX 00 19:21:01
INDEX 01 19:24:14
TRACK 05 AUDIO
TITLE "Withering Nights"
PERFORMER "Soulburn"
FLAGS DCP
INDEX 00 25:02:73
INDEX 01 25:06:16
TRACK 06 AUDIO
TITLE "The Torch"
PERFORMER "Soulburn"
FLAGS DCP
INDEX 01 30:52:49
TRACK 07 AUDIO
TITLE "Spirited Asunder"
PERFORMER "Soulburn"
FLAGS DCP
INDEX 00 35:58:37
INDEX 01 36:02:27
TRACK 08 AUDIO
TITLE "Diary Of A Reaper (outro)"
PERFORMER "Soulburn"
FLAGS DCP
INDEX 00 43:20:07
INDEX 01 43:27:69
TRACK 09 AUDIO
TITLE "The Last Monument Of God"
PERFORMER "Soulburn"
FLAGS DCP
INDEX 00 47:06:28
INDEX 01 47:09:74
Download / Скачать

Хотите скачать бесплатно? Зарегистрируйтесь на сайте (ссылка на регистрацию). Pirat.ca - самый быстрый торрент трекер в рунете!

Как скачивать  ·   Что такое торрент  ·   Рейтинг и ограничения

Пост 30-Дек-2016 03:42 (спустя 2 часа 7 минут)

Топик был перенесен из форума Rock (Трюм) в форум Metal
sergej644
 
Показать сообщения:    
Ответить на тему

Текущее время: Сегодня 18:56

Часовой пояс: GMT + 4



Вы не можете начинать темы
Вы не можете отвечать на сообщения
Вы не можете редактировать свои сообщения
Вы не можете удалять свои сообщения
Вы не можете голосовать в опросах
Вы не можете прикреплять файлы к сообщениям
Вы не можете скачивать файлы

▼ Вниз