Уважаемый Гость!
Вы можете поддержать проект и зарегистрироваться у наших партнеров - онлайн-стратегия MyLands. При регистрации в игре Вы получите код, который сможете активировать после регистрации на pirat.ca и получить 1000 дублонов.

Ваш код:
1b8effbb2d91248629d5897a85d0d1c4a4c433f0
 
     

(Industrial Metal / Dark Electro/EBM) Siva Six - Dawn Of Days - 2016 [FLAC, image+.cue, lossless]

Ответить на тему
 
Автор
Сообщение

Пост 30-Дек-2016 02:06

[Q] 

Дядя Вова

Гроза морей

Siva Six - Dawn Of Days Год издания: 2016
Страна: Athens, Greece
Жанр: Industrial Metal / Dark Electro/EBM
Продолжительность: 00:51:38
Лейбл издания: Alfa Matrix
Тип альбома: Master
Страна-выпуска диска: November 11th, 2016 EU
Номер по каталогу: AM1232CD
Формат: FLAC
Битрейт аудио: lossless
Тип рипа: image+.cue
Наличие сканов в содержимом раздачи: да
01. To The Light (04:29)
02. Daylord (04:43)
03. Apocalypsis (04:14)
04. The Dead Walk The Earth (01:38)
05. Twenty Eight (feat. Boog from Junksista & G. Diamantopoulos) (04:10)
06. Transcedence (04:00)
07. High On Low (04:37)
08. The False Prophet (00:40)
09. Superstition (2K16 edit) (03:49)
10. Forever (05:05)
11. Until Death Reunites Us (feat. G. Diamantopoulos) (05:58)
12. The Messenger (feat. G. Diamantopoulos) (08:15)
Exact Audio Copy V1.1 from 23. June 2015
Report EAC on the extraction executed 4. December 2016, 12:09
Siva Six / Dawn Of Days
Drive: _NEC DVD_RW ND-3520AW Adapter: 1 ID: 0
Reading mode: Reliability
Use of an exact stream: Yes
disable cache of audio: Yes
Use of indexes C2: No
Read offset correction: 48
Ability to read to area Lead-in and Lead-out: No
Filling of the passed samples with silence: Yes
Removal of blocks with silence in the beginning and the end: No
At calculations CRC zero samples were used: Yes
Interface: Built in Win32-interface for Win NT / 2000
Output format: User encoder
Selected bitrate: 1024 kBit / s
Quality: High
Adding ID3-Tag: None
compression utility: C: \ Program Files \ Exact Audio Copy \ Flac \ flac.exe
Advanced Options: -6 -V -s -T "Date =% year%" -T "Genre =% genre%" -T "COMMENT = ripped by kergarn special for New-Team.org"% source%
TOC of the extracted CD
     Track | Start | Duration | Initial sector | The final sector
    -------------------------------------------------- -------------------
       1 | 0: 00.00 | 4: 28.72 | 0 | 20171
       2 | 4: 28.72 | 4: 43.37 | 20172 | 41433
       3 | 9: 12.34 | 4: 13.44 | 41434 | 60452
       4 | 13: 26.03 | 1: 38.21 | 60453 | 67823
       5 | 15: 04.24 | 4: 10.09 | 67824 | 86582
       6 | 19: 14.33 | 3: 59.73 | 86583 | 104580
       7 | 23: 14.31 | 4: 36.67 | 104581 | 125347
       8 | 27: 51.23 | 0: 40.28 | 125348 | 128375
       9 | 28: 31.51 | 3: 49.22 | 128376 | 145572
      10 | 32: 20.73 | 5: 04.56 | 145 573 | 168428
      11 | 37: 25.54 | 5: 58.03 | 168429 | 195281
      12 | 43: 23.57 | 8: 14.45 | 195 282 | 232376
Features a range of extraction and error messages
Selected range
     File name D: \ Siva Six 2016-Dawn Of Days (electro industrial dark electro) [flac] 513827 \ Siva Six - Dawn Of Days.wav
     The peak level of 97.2%
     extraction rate of 1.7 X
     Quality of a range of 99.9%
     CRC test 3659BAB2
     CRC copies 3659BAB2
     Copying ... OK
Ошибок не произошло
AccurateRip: сводка
Трек 1 отсутствует в базе данных
Трек 2 отсутствует в базе данных
Трек 3 отсутствует в базе данных
Трек 4 отсутствует в базе данных
Трек 5 отсутствует в базе данных
Трек 6 отсутствует в базе данных
Трек 7 отсутствует в базе данных
Трек 8 отсутствует в базе данных
Трек 9 отсутствует в базе данных
Трек 10 отсутствует в базе данных
Трек 11 отсутствует в базе данных
Трек 12 отсутствует в базе данных
Ни одного трека нет в базе AccurateRip
Конец отчёта
---- CUETools DB Plugin V2.1.6
[CTDB TOCID: e5NbXowZJ_iTJPtej6HRQpS3iKc-] disk not present in database
Submit result: e5NbXowZJ_iTJPtej6HRQpS3iKc- has been uploaded
==== Контрольная сумма отчёта EE8C61000FB94D770055969B82BE9E20F1A1631D84BED6359488526D2A3247ED ====
REM GENRE "electro industrial / dark electro"
REM DATE 2016
REM DISCID A10C1A0C
REM COMMENT "ExactAudioCopy v1.1"
PERFORMER "Siva Six"
TITLE "Dawn Of Days"
FILE "Siva Six - Dawn Of Days.flac" WAVE
TRACK 01 AUDIO
TITLE "To The Light"
PERFORMER "Siva Six"
INDEX 01 00:00:00
TRACK 02 AUDIO
TITLE "Daylord"
PERFORMER "Siva Six"
INDEX 00 04:26:72
INDEX 01 04:28:72
TRACK 03 AUDIO
TITLE "Αποκαλυψις"
PERFORMER "Siva Six"
INDEX 00 09:10:34
INDEX 01 09:12:34
TRACK 04 AUDIO
TITLE "The Dead Walk The Earth"
PERFORMER "Siva Six"
INDEX 00 13:24:03
INDEX 01 13:26:03
TRACK 05 AUDIO
TITLE "Twenty Eight (feat. Boog from Junksista & G. Diamantopoulos)"
PERFORMER "Siva Six"
INDEX 00 15:02:24
INDEX 01 15:04:24
TRACK 06 AUDIO
TITLE "Transcedence"
PERFORMER "Siva Six"
INDEX 00 19:12:33
INDEX 01 19:14:33
TRACK 07 AUDIO
TITLE "High On Low"
PERFORMER "Siva Six"
INDEX 00 23:12:31
INDEX 01 23:14:31
TRACK 08 AUDIO
TITLE "The False Prophet"
PERFORMER "Siva Six"
INDEX 00 27:49:23
INDEX 01 27:51:23
TRACK 09 AUDIO
TITLE "Superstition (2K16 Edit)"
PERFORMER "Siva Six"
INDEX 00 28:29:51
INDEX 01 28:31:51
TRACK 10 AUDIO
TITLE "Forever"
PERFORMER "Siva Six"
INDEX 00 32:18:73
INDEX 01 32:20:73
TRACK 11 AUDIO
TITLE "Until Death Reunites Us (feat. G. Diamantopoulos)"
PERFORMER "Siva Six"
INDEX 00 37:23:54
INDEX 01 37:25:54
TRACK 12 AUDIO
TITLE "The Messenger (feat. G. Diamantopoulos)"
PERFORMER "Siva Six"
INDEX 00 43:21:57
INDEX 01 43:23:57
Download / Скачать

Хотите скачать бесплатно? Зарегистрируйтесь на сайте (ссылка на регистрацию). Pirat.ca - самый быстрый торрент трекер в рунете!

Как скачивать  ·   Что такое торрент  ·   Рейтинг и ограничения

Пост 30-Дек-2016 03:42 (спустя 1 час 35 минут)

Топик был перенесен из форума Rock (Трюм) в форум Metal
sergej644
 
Показать сообщения:    
Ответить на тему

Текущее время: Сегодня 02:51

Часовой пояс: GMT + 4



Вы не можете начинать темы
Вы не можете отвечать на сообщения
Вы не можете редактировать свои сообщения
Вы не можете удалять свои сообщения
Вы не можете голосовать в опросах
Вы не можете прикреплять файлы к сообщениям
Вы не можете скачивать файлы

▼ Вниз