Уважаемый Гость!
Вы можете поддержать проект и зарегистрироваться у наших партнеров - онлайн-стратегия MyLands. При регистрации в игре Вы получите код, который сможете активировать после регистрации на pirat.ca и получить 1000 дублонов.

Ваш код:
d49a3625bbdee1b82b14274f97c375f8b2b2ee4c
 
     

(Black Metal) Wendess - MMXXIII-(Limited Edition) - 2016 [FLAC, image+.cue, lossless]

Ответить на тему
 
Автор
Сообщение

Пост 30-Дек-2016 17:43

[Q] 

Дядя Вова

Гроза морей

Wendess - MMXXIII-(Limited Edition) Год издания: 2016
Страна: Canada, Québec
Жанр: Black Metal
Продолжительность: 00:45:17
Лейбл издания: Depressive Illusions Records
Тип альбома: Master
Страна-выпуска диска: Jun 2016 Ukraine
Номер по каталогу: none
Формат: FLAC
Битрейт аудио: lossless
Тип рипа: image+.cue
Наличие сканов в содержимом раздачи: да
01. Dystopie
02. Identité dissociative
03. Sommeil profond
04. Le Marchand d'àmes
05. Nostalgie nocturne
06. Sans raison
07. Forèt maudite
08. 8916
Exact Audio Copy V1.0 beta 3 from 29. August 2011
EAC extraction logfile from 16. December 2016, 0:03
WENDESS / MMXXIII
Used drive : TSSTcorpCDDVDW SN-208AB Adapter: 1 ID: 0
Read mode : Secure
Utilize accurate stream : Yes
Defeat audio cache : Yes
Make use of C2 pointers : No
Read offset correction : 6
Overread into Lead-In and Lead-Out : No
Fill up missing offset samples with silence : Yes
Delete leading and trailing silent blocks : No
Null samples used in CRC calculations : Yes
Used interface : Installed external ASPI interface
Used output format : User Defined Encoder
Selected bitrate : 1024 kBit/s
Quality : High
Add ID3 tag : No
Command line compressor : C:\Program Files (x86)\Exact Audio Copy\Flac\flac.exe
Additional command line options : -8 -V -T "ARTIST=%artist%" -T "ALBUM=%albumtitle%" -T "DATE=%year%" -T "GENRE=%genre%" -T "COMMENT=%comment%" %source% -o %dest%
TOC of the extracted CD
Track | Start | Length | Start sector | End sector
---------------------------------------------------------
1 | 0:00.00 | 5:14.29 | 0 | 23578
2 | 5:14.29 | 6:54.47 | 23579 | 54675
3 | 12:09.01 | 7:10.44 | 54676 | 86969
4 | 19:19.45 | 6:19.54 | 86970 | 115448
5 | 25:39.24 | 6:37.07 | 115449 | 145230
6 | 32:16.31 | 4:45.08 | 145231 | 166613
7 | 37:01.39 | 4:39.72 | 166614 | 187610
8 | 41:41.36 | 3:35.44 | 187611 | 203779
Range status and errors
Selected range
Filename H:\Музыка\WENDESS - MMXXIII.wav
Peak level 100.0 %
Extraction speed 1.7 X
Range quality 99.9 %
Test CRC FC7D91B7
Copy CRC FC7D91B7
Copy OK
No errors occurred
AccurateRip summary
Track 1 not present in database
Track 2 not present in database
Track 3 not present in database
Track 4 not present in database
Track 5 not present in database
Track 6 not present in database
Track 7 not present in database
Track 8 not present in database
None of the tracks are present in the AccurateRip database
End of status report
==== Log checksum A173DE9FAEB0C59A43033E3B233F8AD275388C49860040A291A98D99F01B7497 ====
REM GENRE Black metal
REM DATE 2016
REM DISCID 530A9D08
REM COMMENT Jun 2016 Ukraine
PERFORMER "Wendess"
TITLE "MMXXIII"
FILE "Wendess - MMXXIII.flac" WAVE
TRACK 01 AUDIO
TITLE "Dystopie"
FLAGS DCP
INDEX 01 00:00:00
TRACK 02 AUDIO
TITLE "Identite disscociative"
FLAGS DCP
INDEX 00 05:12:29
INDEX 01 05:14:29
TRACK 03 AUDIO
TITLE "Sommeil profond"
FLAGS DCP
INDEX 00 12:07:01
INDEX 01 12:09:01
TRACK 04 AUDIO
TITLE "Le Marchand d'ames"
FLAGS DCP
INDEX 00 19:17:45
INDEX 01 19:19:45
TRACK 05 AUDIO
TITLE "Nostalgie nocturne"
FLAGS DCP
INDEX 00 25:37:24
INDEX 01 25:39:24
TRACK 06 AUDIO
TITLE "Sans raison"
FLAGS DCP
INDEX 00 32:14:31
INDEX 01 32:16:31
TRACK 07 AUDIO
TITLE "Foret maudite"
FLAGS DCP
INDEX 00 36:59:39
INDEX 01 37:01:39
TRACK 08 AUDIO
TITLE "8916"
FLAGS DCP
INDEX 00 41:39:36
INDEX 01 41:41:36
Download / Скачать

Хотите скачать бесплатно? Зарегистрируйтесь на сайте (ссылка на регистрацию). Pirat.ca - самый быстрый торрент трекер в рунете!

Как скачивать  ·   Что такое торрент  ·   Рейтинг и ограничения

Пост 30-Дек-2016 23:10 (спустя 5 часов)

Топик был перенесен из форума Rock (Трюм) в форум Metal
sergej644
 
Показать сообщения:    
Ответить на тему

Текущее время: Сегодня 19:47

Часовой пояс: GMT + 4



Вы не можете начинать темы
Вы не можете отвечать на сообщения
Вы не можете редактировать свои сообщения
Вы не можете удалять свои сообщения
Вы не можете голосовать в опросах
Вы не можете прикреплять файлы к сообщениям
Вы не можете скачивать файлы

▼ Вниз