Уважаемый Гость!
Вы можете поддержать проект и зарегистрироваться у наших партнеров - онлайн-стратегия MyLands. При регистрации в игре Вы получите код, который сможете активировать после регистрации на pirat.ca и получить 1000 дублонов.

Ваш код:
1b8effbb2d91248629d5897a85d0d1c4a4c433f0
 
     

(Melodic Power Metal) Dreamtale - Seventhian...Memories Of Time-(2cd Japanese Edition) - 2016 [FLAC, image+.cue, lossless]

Ответить на тему
 
Автор
Сообщение

Пост 31-Дек-2016 19:11

[Q] 

Дядя Вова

Гроза морей

Dreamtale - Seventhian...Memories Of Time-(2cd Japanese Edition) Год издания: 2016
Страна: Finland (Tampere)
Жанр: Melodic Power Metal
Продолжительность: 01:30:26
Лейбл издания: Avalon/Marquee Inc.
Тип альбома: Master
Страна-выпуска диска: December 9th, 2016 Japan
Номер по каталогу: [MICP-90096]
Формат: FLAC
Битрейт аудио: lossless
Тип рипа: image+.cue
Наличие сканов в содержимом раздачи: да
1. Dreality
2. For Our Future
3. October Is Mine
4. Picnic Inferno
5. Cabal Toyboy
6. True Life
7. Reality Reborn
8. Fusion Illusion
9. Names on the Wall
10. Greenback Hunter
11. Moral Messiah
12. Embrace My Scars
13. Even If I Cannot Breathe (Bonus Track)
Exact Audio Copy V1.3 from 2. September 2016
EAC extraction logfile from 9. December 2016, 19:42
Dreamtale / Seventhian (Japan)
Used drive : ATAPI iHAS122 W Adapter: 2 ID: 0
Read mode : Secure
Utilize accurate stream : Yes
Defeat audio cache : Yes
Make use of C2 pointers : No
Read offset correction : 48
Overread into Lead-In and Lead-Out : No
Fill up missing offset samples with silence : Yes
Delete leading and trailing silent blocks : No
Null samples used in CRC calculations : Yes
Used interface : Installed external ASPI interface
Used output format : User Defined Encoder
Selected bitrate : 1024 kBit/s
Quality : High
Add ID3 tag : Yes
Command line compressor : C:\Program Files\FLAC\flac.exe
Additional command line options : -V -8 -T "Date=%year%" -T "Genre=%genre%" -T"COMMENT=Ripped by Ilijan" -8 -V %source%
TOC of the extracted CD
Track | Start | Length | Start sector | End sector
---------------------------------------------------------
1 | 0:00.00 | 3:28.23 | 0 | 15622
2 | 3:28.23 | 4:05.00 | 15623 | 33997
3 | 7:33.23 | 4:07.00 | 33998 | 52522
4 | 11:40.23 | 4:18.00 | 52523 | 71872
5 | 15:58.23 | 4:41.03 | 71873 | 92950
6 | 20:39.26 | 4:19.72 | 92951 | 112447
7 | 24:59.23 | 4:29.00 | 112448 | 132622
8 | 29:28.23 | 4:44.42 | 132623 | 153964
9 | 34:12.65 | 4:30.08 | 153965 | 174222
10 | 38:42.73 | 3:44.22 | 174223 | 191044
11 | 42:27.20 | 4:14.52 | 191045 | 210146
12 | 46:41.72 | 5:12.25 | 210147 | 233571
13 | 51:54.22 | 4:08.03 | 233572 | 252174
Range status and errors
Selected range
Filename D:\ilко\Dreamtale - Seventhian (Japan).wav
Peak level 100.0 %
Extraction speed 3.9 X
Range quality 100.0 %
Test CRC 3B8110D1
Copy CRC 3B8110D1
Copy OK
No errors occurred
AccurateRip summary
Track 1 not present in database
Track 2 not present in database
Track 3 not present in database
Track 4 not present in database
Track 5 not present in database
Track 6 not present in database
Track 7 not present in database
Track 8 not present in database
Track 9 not present in database
Track 10 not present in database
Track 11 not present in database
Track 12 not present in database
Track 13 not present in database
None of the tracks are present in the AccurateRip database
End of status report
---- CUETools DB Plugin V2.1.6
[CTDB TOCID: rt_KerWLgexIzS1WoEo9A5xUTQg-] found
Submit result: rt_KerWLgexIzS1WoEo9A5xUTQg- has been confirmed
Track | CTDB Status
1 | (1/1) Accurately ripped
2 | (1/1) Accurately ripped
3 | (1/1) Accurately ripped
4 | (1/1) Accurately ripped
5 | (1/1) Accurately ripped
6 | (1/1) Accurately ripped
7 | (1/1) Accurately ripped
8 | (1/1) Accurately ripped
9 | (1/1) Accurately ripped
10 | (1/1) Accurately ripped
11 | (1/1) Accurately ripped
12 | (1/1) Accurately ripped
13 | (1/1) Accurately ripped
==== Log checksum A0E85B6D6F45BA292396E1F2379DD21BF52AE6CC923DAD8E8A919CC7337EB3A9 ====
REM GENRE Melodic Power Metal
REM DATE 2016
REM DISCID 8B0D220D
REM COMMENT December 9th, 2016 Japan
PERFORMER "Dreamtale"
TITLE "Seventhian"
FILE "Dreamtale - Seventhian.flac" WAVE
TRACK 01 AUDIO
TITLE "Dreality"
INDEX 01 00:00:00
TRACK 02 AUDIO
TITLE "For Our Future"
INDEX 01 03:28:23
TRACK 03 AUDIO
TITLE "October Is Mine"
INDEX 01 07:33:23
TRACK 04 AUDIO
TITLE "Picnic Inferno"
INDEX 00 11:38:26
INDEX 01 11:40:23
TRACK 05 AUDIO
TITLE "Cabal Toyboy"
INDEX 00 15:55:28
INDEX 01 15:58:23
TRACK 06 AUDIO
TITLE "True Life"
INDEX 01 20:39:26
TRACK 07 AUDIO
TITLE "Reality Reborn"
INDEX 00 24:56:26
INDEX 01 24:59:23
TRACK 08 AUDIO
TITLE "Fusion Illusion"
INDEX 01 29:28:23
TRACK 09 AUDIO
TITLE "Names On The Wall"
INDEX 00 34:11:27
INDEX 01 34:12:65
TRACK 10 AUDIO
TITLE "Greenback Hunter"
INDEX 01 38:42:73
TRACK 11 AUDIO
TITLE "Moral Messiah"
INDEX 00 42:24:27
INDEX 01 42:27:20
TRACK 12 AUDIO
TITLE "Embrace My Scars"
INDEX 00 46:38:27
INDEX 01 46:41:72
TRACK 13 AUDIO
TITLE "Even If I Cannot Breathe"
INDEX 00 51:48:25
INDEX 01 51:54:22
1. Refuge from Reality
2. Call of the Wild
3. Angel's Eyes
4. Two Hundred Men
5. My Only Wish
6. World's Child
7. Take What the Heavens Create
8. Firebird
Exact Audio Copy V1.3 from 2. September 2016
EAC extraction logfile from 9. December 2016, 20:06
Dreamtale / Memories Of Time (Japan)
Used drive : ATAPI iHAS122 W Adapter: 2 ID: 0
Read mode : Secure
Utilize accurate stream : Yes
Defeat audio cache : Yes
Make use of C2 pointers : No
Read offset correction : 48
Overread into Lead-In and Lead-Out : No
Fill up missing offset samples with silence : Yes
Delete leading and trailing silent blocks : No
Null samples used in CRC calculations : Yes
Used interface : Installed external ASPI interface
Used output format : User Defined Encoder
Selected bitrate : 1024 kBit/s
Quality : High
Add ID3 tag : Yes
Command line compressor : C:\Program Files\FLAC\flac.exe
Additional command line options : -V -8 -T "Date=%year%" -T "Genre=%genre%" -T"COMMENT=Ripped by Ilijan" -8 -V %source%
TOC of the extracted CD
Track | Start | Length | Start sector | End sector
---------------------------------------------------------
1 | 0:00.00 | 4:51.22 | 0 | 21846
2 | 4:51.22 | 4:51.01 | 21847 | 43672
3 | 9:42.23 | 4:17.00 | 43673 | 62947
4 | 13:59.23 | 3:55.40 | 62948 | 80612
5 | 17:54.63 | 4:53.36 | 80613 | 102623
6 | 22:48.24 | 4:51.74 | 102624 | 124522
7 | 27:40.23 | 2:52.00 | 124523 | 137422
8 | 30:32.23 | 3:52.02 | 137423 | 154824
Range status and errors
Selected range
Filename D:\ilко\Dreamtale - Memories Of Time (Japan).wav
Peak level 99.9 %
Extraction speed 3.4 X
Range quality 100.0 %
Test CRC 766C397B
Copy CRC 766C397B
Copy OK
No errors occurred
AccurateRip summary
Track 1 not present in database
Track 2 not present in database
Track 3 not present in database
Track 4 not present in database
Track 5 not present in database
Track 6 not present in database
Track 7 not present in database
Track 8 not present in database
None of the tracks are present in the AccurateRip database
End of status report
---- CUETools DB Plugin V2.1.6
[CTDB TOCID: dm0FJayB2ldc_YrUH_yNgVjFL9M-] found
Submit result: dm0FJayB2ldc_YrUH_yNgVjFL9M- has been confirmed
Track | CTDB Status
1 | (1/1) Accurately ripped
2 | (1/1) Accurately ripped
3 | (1/1) Accurately ripped
4 | (1/1) Accurately ripped
5 | (1/1) Accurately ripped
6 | (1/1) Accurately ripped
7 | (1/1) Accurately ripped
8 | (1/1) Accurately ripped
==== Log checksum 28C90F70392E6B3DD724E23302460BEF2458D48484B78421E5359ABC5BF93CB5 ====
REM GENRE Melodic Power Metal
REM DATE 2016
REM DISCID 66081008
REM COMMENT December 9th, 2016 Japan
PERFORMER "Dreamtale"
TITLE "...Memories Of Time"
FILE "Dreamtale - ...Memories Of Time.flac" WAVE
TRACK 01 AUDIO
TITLE "Refuge From Reality"
INDEX 01 00:00:00
TRACK 02 AUDIO
TITLE "Call Of The Wild"
INDEX 01 04:51:22
TRACK 03 AUDIO
TITLE "Angel's Eyes"
INDEX 00 09:39:21
INDEX 01 09:42:23
TRACK 04 AUDIO
TITLE "Two Hundred Men"
INDEX 01 13:59:23
TRACK 05 AUDIO
TITLE "My Only Wish"
INDEX 01 17:54:63
TRACK 06 AUDIO
TITLE "World's Child"
INDEX 00 22:44:27
INDEX 01 22:48:24
TRACK 07 AUDIO
TITLE "Take What The Heavens Create"
INDEX 00 27:38:27
INDEX 01 27:40:23
TRACK 08 AUDIO
TITLE "Firebird"
INDEX 01 30:32:23
Download / Скачать

Хотите скачать бесплатно? Зарегистрируйтесь на сайте (ссылка на регистрацию). Pirat.ca - самый быстрый торрент трекер в рунете!

Как скачивать  ·   Что такое торрент  ·   Рейтинг и ограничения

Пост 01-Янв-2017 15:45 (спустя 20 часов)

Топик был перенесен из форума Rock (Трюм) в форум Metal
sergej644
 
Показать сообщения:    
Ответить на тему

Текущее время: Сегодня 02:58

Часовой пояс: GMT + 4



Вы не можете начинать темы
Вы не можете отвечать на сообщения
Вы не можете редактировать свои сообщения
Вы не можете удалять свои сообщения
Вы не можете голосовать в опросах
Вы не можете прикреплять файлы к сообщениям
Вы не можете скачивать файлы

▼ Вниз