Уважаемый Гость!
Вы можете поддержать проект и зарегистрироваться у наших партнеров - онлайн-стратегия MyLands. При регистрации в игре Вы получите код, который сможете активировать после регистрации на pirat.ca и получить 1000 дублонов.

Ваш код:
d49a3625bbdee1b82b14274f97c375f8b2b2ee4c
 
     

(Power Metal) Powerwolf - Blessed & Possessed (Tour Edition) (2CD) - 2017 [FLAC, image +.cue, lossless]

Ответить на тему
 
Автор
Сообщение

Пост 15-Янв-2017 15:30

[Q] 

sergej644

Powerwolf - Blessed & Possessed (Tour Edition) (2CD)--
Год издания: 2017
Страна: Germany
Жанр: Power Metal
Продолжительность: 01:58:53-Лейбл издания: Napalm Records Handels GmbH
Страна-выпуска диска: Germany
Номер по каталогу: NPR 694 DP-Формат: FLAC
Битрейт аудио: Lossless
Тип рипа: image +.cue
Наличие сканов в содержимом раздачи: да
-

01. Blessed & Possessed (4:42)
02. Dead Until Dark (3:50)
03. Army Of The Night (3:21)
04. Armata Strigoi (3:59)
05. We Are The Wild (3:41)
06. Higher Than Heaven (3:31)
07. Christ & Combat (3:40)
08. Sanctus Dominus (3:23)
09. Sacramental Sister (4:37)
10. All You Can Bleed (3:44)
11. Let There Be Night (7:19)

01. Lupus Daemonis (Intro) (1:20)
02. Sanctified With Dynamite (4:25)
03. Coleus Sanctus (5:12)
04. Army Of The Night (4:24)
05. Amen & Attack (5:06)
06. Resurrection By Erection (4:47)
07. Armata Strigoi (5:44)
08. Kreuzfeuer (4:14)
09. Werewolves Of Armenia (6:20)
10. In The Name Of God (4:14)
11. Blessed & Possessed (5:36)
12. All We Need Is Blood (4:17)
13. Dead Boys Don't Cry (4:33)
14. We Drink Your Blood (4:47)
15. Lupus Dei (8:07)
-
Код:
Exact Audio Copy V1.1 from 23. June 2015
EAC extraction logfile from 14. January 2017, 12:38
Powerwolf / Blessed & Possessed (Tour Edition) Disc I
Used drive  : TSSTcorpBDDVDW SE-506CB   Adapter: 1  ID: 1
Read mode               : Secure
Utilize accurate stream : Yes
Defeat audio cache      : Yes
Make use of C2 pointers : No
Read offset correction                      : 6
Overread into Lead-In and Lead-Out          : No
Fill up missing offset samples with silence : Yes
Delete leading and trailing silent blocks   : No
Null samples used in CRC calculations       : Yes
Used interface                              : Native Win32 interface for Win NT & 2000
Used output format              : User Defined Encoder
Selected bitrate                : 1024 kBit/s
Quality                         : High
Add ID3 tag                     : No
Command line compressor         : C:\Program Files (x86)\Exact Audio Copy\Flac\flac.exe
Additional command line options : -V -8 -T "Date=%year%" -T "Genre=%genre%" %source%
TOC of the extracted CD
     Track |   Start  |  Length  | Start sector | End sector
    ---------------------------------------------------------
        1  |  0:00.00 |  4:42.21 |         0    |    21170
        2  |  4:42.21 |  3:49.50 |     21171    |    38395
        3  |  8:31.71 |  3:21.29 |     38396    |    53499
        4  | 11:53.25 |  3:59.37 |     53500    |    71461
        5  | 15:52.62 |  3:41.27 |     71462    |    88063
        6  | 19:34.14 |  3:30.45 |     88064    |   103858
        7  | 23:04.59 |  3:39.53 |    103859    |   120336
        8  | 26:44.37 |  3:22.54 |    120337    |   135540
        9  | 30:07.16 |  4:36.67 |    135541    |   156307
       10  | 34:44.08 |  3:44.30 |    156308    |   173137
       11  | 38:28.38 |  7:19.37 |    173138    |   206099
Range status and errors
Selected range
     Filename C:\EAC\Ungern666\Powerwolf - Blessed & Possessed (Tour Edition) Disc I.wav
     Peak level 99.3 %
     Extraction speed 1.8 X
     Range quality 99.9 %
     Test CRC 1B6F53BB
     Copy CRC 1B6F53BB
     Copy OK
No errors occurred
AccurateRip summary
Track  1  accurately ripped (confidence 52)  [4C04CD1B]  (AR v2)
Track  2  accurately ripped (confidence 52)  [68177273]  (AR v2)
Track  3  accurately ripped (confidence 51)  [5727DB62]  (AR v2)
Track  4  accurately ripped (confidence 51)  [9D7A2CE2]  (AR v2)
Track  5  accurately ripped (confidence 52)  [6E380A70]  (AR v2)
Track  6  accurately ripped (confidence 52)  [36223B95]  (AR v2)
Track  7  accurately ripped (confidence 52)  [5A53C370]  (AR v2)
Track  8  accurately ripped (confidence 52)  [4D0A95A5]  (AR v2)
Track  9  accurately ripped (confidence 52)  [DACBD5C5]  (AR v2)
Track 10  accurately ripped (confidence 52)  [4FBD371F]  (AR v2)
Track 11  accurately ripped (confidence 51)  [0B39647E]  (AR v2)
All tracks accurately ripped
End of status report
---- CUETools DB Plugin V2.1.6
[CTDB TOCID: UzlIQzREPpqYxSHTc_Rtj._rB.s-] found
Submit result: UzlIQzREPpqYxSHTc_Rtj._rB.s- has been confirmed
Track | CTDB Status
  1   | (229/230) Accurately ripped
  2   | (229/230) Accurately ripped
  3   | (228/230) Accurately ripped
  4   | (228/230) Accurately ripped
  5   | (229/230) Accurately ripped
  6   | (229/230) Accurately ripped
  7   | (229/230) Accurately ripped
  8   | (229/230) Accurately ripped
  9   | (229/230) Accurately ripped
10   | (228/230) Accurately ripped
11   | (226/230) Accurately ripped
Код:
Exact Audio Copy V1.1 from 23. June 2015
EAC extraction logfile from 14. January 2017, 14:00
Powerwolf / Blessed & Possessed (Tour Edition) Disc II
Used drive  : TSSTcorpBDDVDW SE-506CB   Adapter: 1  ID: 1
Read mode               : Secure
Utilize accurate stream : Yes
Defeat audio cache      : Yes
Make use of C2 pointers : No
Read offset correction                      : 6
Overread into Lead-In and Lead-Out          : No
Fill up missing offset samples with silence : Yes
Delete leading and trailing silent blocks   : No
Null samples used in CRC calculations       : Yes
Used interface                              : Native Win32 interface for Win NT & 2000
Used output format              : User Defined Encoder
Selected bitrate                : 1024 kBit/s
Quality                         : High
Add ID3 tag                     : No
Command line compressor         : C:\Program Files (x86)\Exact Audio Copy\Flac\flac.exe
Additional command line options : -V -8 -T "Date=%year%" -T "Genre=%genre%" %source%
TOC of the extracted CD
     Track |   Start  |  Length  | Start sector | End sector
    ---------------------------------------------------------
        1  |  0:00.00 |  1:20.27 |         0    |     6026
        2  |  1:20.27 |  4:25.06 |      6027    |    25907
        3  |  5:45.33 |  5:11.49 |     25908    |    49281
        4  | 10:57.07 |  4:24.32 |     49282    |    69113
        5  | 15:21.39 |  5:05.54 |     69114    |    92042
        6  | 20:27.18 |  4:46.55 |     92043    |   113547
        7  | 25:13.73 |  5:44.16 |    113548    |   139363
        8  | 30:58.14 |  4:13.65 |    139364    |   158403
        9  | 35:12.04 |  6:19.49 |    158404    |   186877
       10  | 41:31.53 |  4:13.57 |    186878    |   205909
       11  | 45:45.35 |  5:36.06 |    205910    |   231115
       12  | 51:21.41 |  4:17.18 |    231116    |   250408
       13  | 55:38.59 |  4:32.45 |    250409    |   270853
       14  | 60:11.29 |  4:46.48 |    270854    |   292351
       15  | 64:58.02 |  8:07.16 |    292352    |   328892
Range status and errors
Selected range
     Filename C:\EAC\Ungern666\Powerwolf - Blessed & Possessed (Tour Edition) Disc II.wav
     Peak level 98.5 %
     Extraction speed 2.2 X
     Range quality 99.9 %
     Test CRC 423B5DE9
     Copy CRC 423B5DE9
     Copy OK
No errors occurred
AccurateRip summary
Track  1  not present in database
Track  2  not present in database
Track  3  not present in database
Track  4  not present in database
Track  5  not present in database
Track  6  not present in database
Track  7  not present in database
Track  8  not present in database
Track  9  not present in database
Track 10  not present in database
Track 11  not present in database
Track 12  not present in database
Track 13  not present in database
Track 14  not present in database
Track 15  not present in database
None of the tracks are present in the AccurateRip database
End of status report
---- CUETools DB Plugin V2.1.6
Код:
REM DATE 2017
REM DISCID 8E0ABC0B
REM COMMENT "ExactAudioCopy v1.1"
PERFORMER "Powerwolf"
TITLE "Blessed & Possessed (Tour Edition) Disc I"
FILE "Powerwolf - Blessed & Possessed (Tour Edition) Disc I.flac" WAVE
  TRACK 01 AUDIO
    TITLE "Blessed & Possessed"
    PERFORMER "Powerwolf"
    INDEX 01 00:00:00
  TRACK 02 AUDIO
    TITLE "Dead Until Dark"
    PERFORMER "Powerwolf"
    INDEX 01 04:42:21
  TRACK 03 AUDIO
    TITLE "Army Of The Night"
    PERFORMER "Powerwolf"
    INDEX 01 08:31:71
  TRACK 04 AUDIO
    TITLE "Armata Strigoi"
    PERFORMER "Powerwolf"
    INDEX 01 11:53:25
  TRACK 05 AUDIO
    TITLE "We Are The Wild"
    PERFORMER "Powerwolf"
    INDEX 01 15:52:62
  TRACK 06 AUDIO
    TITLE "Higher Than Heaven"
    PERFORMER "Powerwolf"
    INDEX 01 19:34:14
  TRACK 07 AUDIO
    TITLE "Christ & Combat"
    PERFORMER "Powerwolf"
    INDEX 01 23:04:59
  TRACK 08 AUDIO
    TITLE "Sanctus Dominus"
    PERFORMER "Powerwolf"
    INDEX 01 26:44:37
  TRACK 09 AUDIO
    TITLE "Sacramental Sister"
    PERFORMER "Powerwolf"
    INDEX 01 30:07:16
  TRACK 10 AUDIO
    TITLE "All You Can Bleed"
    PERFORMER "Powerwolf"
    INDEX 01 34:44:08
  TRACK 11 AUDIO
    TITLE "Let There Be Night"
    PERFORMER "Powerwolf"
    INDEX 01 38:28:38
Код:
REM DATE 2017
REM DISCID C411210F
REM COMMENT "ExactAudioCopy v1.1"
PERFORMER "Powerwolf"
TITLE "Blessed & Possessed (Tour Edition) Disc II"
FILE "Powerwolf - Blessed & Possessed (Tour Edition) Disc II.flac" WAVE
  TRACK 01 AUDIO
    TITLE "Lupus Daemonis (Intro)"
    PERFORMER "Powerwolf"
    FLAGS DCP
    INDEX 01 00:00:00
  TRACK 02 AUDIO
    TITLE "Sanctified With Dynamite"
    PERFORMER "Powerwolf"
    FLAGS DCP
    INDEX 01 01:20:27
  TRACK 03 AUDIO
    TITLE "Coleus Sanctus"
    PERFORMER "Powerwolf"
    FLAGS DCP
    INDEX 01 05:45:33
  TRACK 04 AUDIO
    TITLE "Army Of The Night"
    PERFORMER "Powerwolf"
    FLAGS DCP
    INDEX 01 10:57:07
  TRACK 05 AUDIO
    TITLE "Amen & Attack"
    PERFORMER "Powerwolf"
    FLAGS DCP
    INDEX 01 15:21:39
  TRACK 06 AUDIO
    TITLE "Resurrection By Erection"
    PERFORMER "Powerwolf"
    FLAGS DCP
    INDEX 01 20:27:18
  TRACK 07 AUDIO
    TITLE "Armata Strigoi"
    PERFORMER "Powerwolf"
    FLAGS DCP
    INDEX 01 25:13:73
  TRACK 08 AUDIO
    TITLE "Kreuzfeuer"
    PERFORMER "Powerwolf"
    FLAGS DCP
    INDEX 01 30:58:14
  TRACK 09 AUDIO
    TITLE "Werewolves Of Armenia"
    PERFORMER "Powerwolf"
    FLAGS DCP
    INDEX 01 35:12:04
  TRACK 10 AUDIO
    TITLE "In The Name Of God"
    PERFORMER "Powerwolf"
    FLAGS DCP
    INDEX 01 41:31:53
  TRACK 11 AUDIO
    TITLE "Blessed & Possessed"
    PERFORMER "Powerwolf"
    FLAGS DCP
    INDEX 01 45:45:35
  TRACK 12 AUDIO
    TITLE "All We Need Is Blood"
    PERFORMER "Powerwolf"
    FLAGS DCP
    INDEX 01 51:21:41
  TRACK 13 AUDIO
    TITLE "Dead Boys Don't Cry"
    PERFORMER "Powerwolf"
    FLAGS DCP
    INDEX 01 55:38:59
  TRACK 14 AUDIO
    TITLE "We Drink Your Blood"
    PERFORMER "Powerwolf"
    FLAGS DCP
    INDEX 01 60:11:29
  TRACK 15 AUDIO
    TITLE "Lupus Dei"
    PERFORMER "Powerwolf"
    FLAGS DCP
    INDEX 01 64:58:02
--
Download / Скачать

Хотите скачать бесплатно? Зарегистрируйтесь на сайте (ссылка на регистрацию). Pirat.ca - самый быстрый торрент трекер в рунете!

Как скачивать  ·   Что такое торрент  ·   Рейтинг и ограничения

Показать сообщения:    
Ответить на тему

Текущее время: Сегодня 19:47

Часовой пояс: GMT + 4



Вы не можете начинать темы
Вы не можете отвечать на сообщения
Вы не можете редактировать свои сообщения
Вы не можете удалять свои сообщения
Вы не можете голосовать в опросах
Вы не можете прикреплять файлы к сообщениям
Вы не можете скачивать файлы

▼ Вниз