Уважаемый Гость!
Вы можете поддержать проект и зарегистрироваться у наших партнеров - онлайн-стратегия MyLands. При регистрации в игре Вы получите код, который сможете активировать после регистрации на pirat.ca и получить 1000 дублонов.

Ваш код:
b35b3ec45a7bd3f86315766471edc285be832af4
 
     

(Heavy Metal, Power Metal) Grave Digger - Healed by Metal-(Japanese Edition) - 2017 [FLAC, image+.cue, lossless]

Ответить на тему
 
Автор
Сообщение

Пост 08-Фев-2017 01:28

[Q] 

Дядя Вова

Гроза морей

-Grave Digger - Healed by Metal-(Japanese Edition)-- Год издания: 2017
Страна: Gladbeck, North Rhine-Westphalia, Germany
Жанр: Heavy Metal, Power Metal
Продолжительность: 00:48:10-Лейбл издания: Ward Records
Тип альбома: Master
Страна-выпуска диска: January 11th, 2017, Japan
Номер по каталогу: GQCS-90255
Формат: FLAC
Битрейт аудио: lossless
Тип рипа: image+.cue
Наличие сканов в содержимом раздачи: да-
01. Healed by Metal
02. When Night Falls
03. Lawbreaker
04. Free Forever
05. Call for War
06. Ten Commandments of Metal
07. The Hangman's Eye
08. Kill Ritual
09. Hallelujah
10. Laughing with the Dead
11. Kingdom of the Night (Bonus Track)
12. Bucket List (Bonus Track)
13. Brave, Young and Innocent (Japanese Bonus Track)
Exact Audio Copy V1.3 from 2. September 2016
EAC extraction logfile from 18. January 2017, 11:37
Grave Digger / Healed By Metal (Japan)
Used drive : ATAPI iHAS122 W Adapter: 2 ID: 0
Read mode : Secure
Utilize accurate stream : Yes
Defeat audio cache : Yes
Make use of C2 pointers : No
Read offset correction : 48
Overread into Lead-In and Lead-Out : No
Fill up missing offset samples with silence : Yes
Delete leading and trailing silent blocks : No
Null samples used in CRC calculations : Yes
Used interface : Installed external ASPI interface
Used output format : User Defined Encoder
Selected bitrate : 1024 kBit/s
Quality : High
Add ID3 tag : Yes
Command line compressor : C:\Program Files\FLAC\flac.exe
Additional command line options : -V -8 -T "Date=%year%" -T "Genre=%genre%" -T"COMMENT=Ripped by Ilijan" -8 -V %source%
TOC of the extracted CD
Track | Start | Length | Start sector | End sector
---------------------------------------------------------
1 | 0:00.00 | 3:45.07 | 0 | 16881
2 | 3:45.07 | 3:56.14 | 16882 | 34595
3 | 7:41.21 | 3:07.48 | 34596 | 48668
4 | 10:48.69 | 3:23.19 | 48669 | 63912
5 | 14:12.13 | 3:21.29 | 63913 | 79016
6 | 17:33.42 | 3:27.57 | 79017 | 94598
7 | 21:01.24 | 3:07.45 | 94599 | 108668
8 | 24:08.69 | 3:43.43 | 108669 | 125436
9 | 27:52.37 | 3:30.38 | 125437 | 141224
10 | 31:23.00 | 5:17.19 | 141225 | 165018
11 | 36:40.19 | 4:07.11 | 165019 | 183554
12 | 40:47.30 | 3:02.49 | 183555 | 197253
13 | 43:50.04 | 4:20.08 | 197254 | 216761
Range status and errors
Selected range
Filename D:\ilко\Grave Digger - Healed By Metal (Japan).wav
Peak level 98.1 %
Extraction speed 3.9 X
Range quality 100.0 %
Test CRC 7B7A130C
Copy CRC 7B7A130C
Copy OK
No errors occurred
AccurateRip summary
Track 1 not present in database
Track 2 not present in database
Track 3 not present in database
Track 4 not present in database
Track 5 not present in database
Track 6 not present in database
Track 7 not present in database
Track 8 not present in database
Track 9 not present in database
Track 10 not present in database
Track 11 not present in database
Track 12 not present in database
Track 13 not present in database
None of the tracks are present in the AccurateRip database
End of status report
---- CUETools DB Plugin V2.1.6
[CTDB TOCID: Tt2P8S7rzBsfpckF_VlwvOGi2aI-] disk not present in database
Submit result: Tt2P8S7rzBsfpckF_VlwvOGi2aI- has been uploaded
==== Log checksum 080ABED1B95E0A64DB80ADB193A4B845AEC72168051F6A95D535FE84C140D5A2 ====
REM GENRE "Heavy/Power Metal"
REM DATE 2017
REM DISCID A50B4A0D
REM COMMENT "ExactAudioCopy v1.3"
PERFORMER "Grave Digger"
TITLE "Healed by Metal"
FILE "Grave Digger - Healed by Metal.flac" WAVE
TRACK 01 AUDIO
TITLE "Healed by Metal"
PERFORMER "Grave Digger"
INDEX 01 00:00:00
TRACK 02 AUDIO
TITLE "When Night Falls"
PERFORMER "Grave Digger"
INDEX 01 03:45:07
TRACK 03 AUDIO
TITLE "Lawbreaker"
PERFORMER "Grave Digger"
INDEX 01 07:41:21
TRACK 04 AUDIO
TITLE "Free Forever"
PERFORMER "Grave Digger"
INDEX 01 10:48:69
TRACK 05 AUDIO
TITLE "Call for War"
PERFORMER "Grave Digger"
INDEX 01 14:12:13
TRACK 06 AUDIO
TITLE "The Commandments of Metal"
PERFORMER "Grave Digger"
INDEX 01 17:33:42
TRACK 07 AUDIO
TITLE "The Hangman's Eye"
PERFORMER "Grave Digger"
INDEX 01 21:01:24
TRACK 08 AUDIO
TITLE "Kill Ritual"
PERFORMER "Grave Digger"
INDEX 01 24:08:69
TRACK 09 AUDIO
TITLE "Hallelujah"
PERFORMER "Grave Digger"
INDEX 01 27:52:37
TRACK 10 AUDIO
TITLE "Laughing with the Dead"
PERFORMER "Grave Digger"
INDEX 01 31:23:00
TRACK 11 AUDIO
TITLE "Kingdom of the Night (Bonus Track)"
PERFORMER "Grave Digger"
INDEX 01 36:40:19
TRACK 12 AUDIO
TITLE "Bucket List (Bonus Track)"
PERFORMER "Grave Digger"
INDEX 01 40:47:30
TRACK 13 AUDIO
TITLE "Brave, Young and Innocent (Japanese Bonus Track)"
PERFORMER "Grave Digger"
INDEX 01 43:50:04
Download / Скачать

Хотите скачать бесплатно? Зарегистрируйтесь на сайте (ссылка на регистрацию). Pirat.ca - самый быстрый торрент трекер в рунете!

Как скачивать  ·   Что такое торрент  ·   Рейтинг и ограничения

Показать сообщения:    
Ответить на тему

Текущее время: Сегодня 19:00

Часовой пояс: GMT + 4



Вы не можете начинать темы
Вы не можете отвечать на сообщения
Вы не можете редактировать свои сообщения
Вы не можете удалять свои сообщения
Вы не можете голосовать в опросах
Вы не можете прикреплять файлы к сообщениям
Вы не можете скачивать файлы

▼ Вниз