Уважаемый Гость!
Вы можете поддержать проект и зарегистрироваться у наших партнеров - онлайн-стратегия MyLands. При регистрации в игре Вы получите код, который сможете активировать после регистрации на pirat.ca и получить 1000 дублонов.

Ваш код:
6ce94c87b14c77f4c9d9415fb160accb369c92d9
 
     

(Heavy Metal) Battle Beast - Bringer of Pain - 2017 [FLAC, image+.cue, lossless]

Ответить на тему
 
Автор
Сообщение

Пост 16-Фев-2017 03:02

[Q] 

Дядя Вова

Гроза морей

-Battle Beast - Bringer of Pain-- Год издания: 2017
Страна: Helsinki, Uusimaa, Finland
Жанр: Heavy Metal
Продолжительность: 00:51:27-Лейбл издания: Nuclear Blast
Тип альбома: Master
Страна-выпуска диска: 2017 Germany
Номер по каталогу: [ NB-3808-0]
Формат: FLAC
Битрейт аудио: lossless
Тип рипа: image+.cue
Наличие сканов в содержимом раздачи: да-
01. Straight to the Heart
02. Bringer of Pain
03. King for a Day
04. Beyond the Burning Skies
05. Familiar Hell
06. Lost in Wars
07. Bastard Son of Odin
08. We Will Fight
09. Dancing with the Beast
10. Far from Heaven
11. God of War (Bonus Track)
12. The Eclipse (Bonus Track)
13. Rock Trash (Bonus Track)
Exact Audio Copy V1.3 from 2. September 2016
EAC extraction logfile from 14. February 2017, 18:42
Battle Beast / Bringer Of Pain
Used drive : ATAPI iHAS122 W Adapter: 2 ID: 0
Read mode : Secure
Utilize accurate stream : Yes
Defeat audio cache : Yes
Make use of C2 pointers : No
Read offset correction : 48
Overread into Lead-In and Lead-Out : No
Fill up missing offset samples with silence : Yes
Delete leading and trailing silent blocks : No
Null samples used in CRC calculations : Yes
Used interface : Installed external ASPI interface
Used output format : User Defined Encoder
Selected bitrate : 1024 kBit/s
Quality : High
Add ID3 tag : No
Command line compressor : C:\Program Files\FLAC\flac.exe
Additional command line options : -V -8 -T "Date=%year%" -T "Genre=%genre%" -T"COMMENT=Ripped by Ilijan - ilko" -8 -V %source%
TOC of the extracted CD
Track | Start | Length | Start sector | End sector
---------------------------------------------------------
1 | 0:00.00 | 3:31.45 | 0 | 15869
2 | 3:31.45 | 3:04.40 | 15870 | 29709
3 | 6:36.10 | 4:35.34 | 29710 | 50368
4 | 11:11.44 | 4:39.44 | 50369 | 71337
5 | 15:51.13 | 4:06.46 | 71338 | 89833
6 | 19:57.59 | 4:34.01 | 89834 | 110384
7 | 24:31.60 | 3:36.22 | 110385 | 126606
8 | 28:08.07 | 3:29.71 | 126607 | 142352
9 | 31:38.03 | 3:44.69 | 142353 | 159221
10 | 35:22.72 | 4:23.62 | 159222 | 179008
11 | 39:46.59 | 3:56.58 | 179009 | 196766
12 | 43:43.42 | 4:30.16 | 196767 | 217032
13 | 48:13.58 | 3:13.52 | 217033 | 231559
Range status and errors
Selected range
Filename D:\ilko\Battle Beast - Bringer Of Pain.wav
Peak level 100.0 %
Extraction speed 3.0 X
Range quality 100.0 %
Test CRC 38DF0744
Copy CRC 38DF0744
Copy OK
No errors occurred
AccurateRip summary
Track 1 not present in database
Track 2 not present in database
Track 3 not present in database
Track 4 not present in database
Track 5 not present in database
Track 6 not present in database
Track 7 not present in database
Track 8 not present in database
Track 9 not present in database
Track 10 not present in database
Track 11 not present in database
Track 12 not present in database
Track 13 not present in database
None of the tracks are present in the AccurateRip database
End of status report
---- CUETools DB Plugin V2.1.6
[CTDB TOCID: 1GSYiR06s98G3N8LWffDYz3AvfE-] disk not present in database
Submit result: 1GSYiR06s98G3N8LWffDYz3AvfE- has been uploaded
==== Log checksum CB7AB6ED53B73B4DCAD51ADA7238D700325EBE7F9EC7333AF6572EA0717D61F1 ====
REM GENRE "Heavy/Power Metal"
REM DATE 2017
REM DISCID BF0C0F0D
REM COMMENT "ExactAudioCopy v1.3"
PERFORMER "Battle Beast"
TITLE "Bringer Of Pain"
FILE "Battle Beast - Bringer Of Pain.flac" WAVE
TRACK 01 AUDIO
TITLE "Straight To The Heart"
PERFORMER "Battle Beast"
INDEX 01 00:00:00
TRACK 02 AUDIO
TITLE "Bringer Of Pain"
PERFORMER "Battle Beast"
INDEX 01 03:31:45
TRACK 03 AUDIO
TITLE "King For A Day"
PERFORMER "Battle Beast"
INDEX 00 06:34:48
INDEX 01 06:36:10
TRACK 04 AUDIO
TITLE "Beyond The Burning Skies"
PERFORMER "Battle Beast"
INDEX 00 11:09:49
INDEX 01 11:11:44
TRACK 05 AUDIO
TITLE "Familiar Hell"
PERFORMER "Battle Beast"
INDEX 01 15:51:13
TRACK 06 AUDIO
TITLE "Lost In Wars (feat. Tomi Joutsen)"
PERFORMER "Battle Beast"
INDEX 00 19:55:24
INDEX 01 19:57:59
TRACK 07 AUDIO
TITLE "Bastard Son Of Odin"
PERFORMER "Battle Beast"
INDEX 01 24:31:60
TRACK 08 AUDIO
TITLE "We Will Fight"
PERFORMER "Battle Beast"
INDEX 00 28:06:28
INDEX 01 28:08:07
TRACK 09 AUDIO
TITLE "Dancing With The Beast"
PERFORMER "Battle Beast"
INDEX 00 31:34:35
INDEX 01 31:38:03
TRACK 10 AUDIO
TITLE "Far From Heaven"
PERFORMER "Battle Beast"
INDEX 00 35:20:52
INDEX 01 35:22:72
TRACK 11 AUDIO
TITLE "God Of War (Bonus Track)"
PERFORMER "Battle Beast"
INDEX 00 39:43:00
INDEX 01 39:46:59
TRACK 12 AUDIO
TITLE "The Eclipse (Bonus Track)"
PERFORMER "Battle Beast"
INDEX 01 43:43:42
TRACK 13 AUDIO
TITLE "Rock Trash (Bonus Track)"
PERFORMER "Battle Beast"
INDEX 01 48:13:58
Download / Скачать

Хотите скачать бесплатно? Зарегистрируйтесь на сайте (ссылка на регистрацию). Pirat.ca - самый быстрый торрент трекер в рунете!

Как скачивать  ·   Что такое торрент  ·   Рейтинг и ограничения

Показать сообщения:    
Ответить на тему

Текущее время: Сегодня 01:13

Часовой пояс: GMT + 4



Вы не можете начинать темы
Вы не можете отвечать на сообщения
Вы не можете редактировать свои сообщения
Вы не можете удалять свои сообщения
Вы не можете голосовать в опросах
Вы не можете прикреплять файлы к сообщениям
Вы не можете скачивать файлы

▼ Вниз