Уважаемый Гость!
Вы можете поддержать проект и зарегистрироваться у наших партнеров - онлайн-стратегия MyLands. При регистрации в игре Вы получите код, который сможете активировать после регистрации на pirat.ca и получить 1000 дублонов.

Ваш код:
1b8effbb2d91248629d5897a85d0d1c4a4c433f0
 
     

(Thrash Metal) Annihilator - Triple Threat - 2017 - 2CD [FLAC, image+.cue, lossless]

Ответить на тему
 
Автор
Сообщение

Пост 22-Фев-2017 02:15

[Q] 

Дядя Вова

Гроза морей

-Annihilator - Triple Threat-- Год издания: 2017
Страна: Ottawa, Ontario, Canada
Жанр: Thrash Metal
Продолжительность: 01:45:43-Лейбл издания: UDR
Тип альбома: Live
Страна-выпуска диска: 2017, First Press, Germany
Номер по каталогу: UDR074P06
Формат: FLAC
Битрейт аудио: lossless
Тип рипа: image+.cue
Наличие сканов в содержимом раздачи: да-
01. King of the Kill
02. No Way Out
03. Creepin' Again
04. Set the World on Fire
05. W.T.Y.D. (Welcome to Your Death)
06. Never, Neverland
07. Bliss
08. Second to None
09. Refresh the Demon
10. Alison Hell
11. Phantasmagoria
Exact Audio Copy V1.3 from 2. September 2016
EAC extraction logfile from 17. February 2017, 17:57
Annihilator / Triple Threat - Live At Bang Your Head Festival
Used drive : MATSHITADVD-RAM UJ8G6 Adapter: 1 ID: 0
Read mode : Secure
Utilize accurate stream : Yes
Defeat audio cache : Yes
Make use of C2 pointers : No
Read offset correction : 103
Overread into Lead-In and Lead-Out : No
Fill up missing offset samples with silence : Yes
Delete leading and trailing silent blocks : No
Null samples used in CRC calculations : Yes
Used interface : Native Win32 interface for Win NT & 2000
Used output format : User Defined Encoder
Selected bitrate : 1024 kBit/s
Quality : High
Add ID3 tag : No
Command line compressor : C:\Program Files (x86)\Exact Audio Copy\FLAC\FLAC.EXE
Additional command line options : -V -8 -T "Date=%year%" -T"Genre=%genre%" -T"COMMENT=Ripped by Ilijan - ilko" -8 -V %source%
TOC of the extracted CD
Track | Start | Length | Start sector | End sector
---------------------------------------------------------
1 | 0:00.24 | 5:57.57 | 24 | 26855
2 | 5:58.06 | 5:56.65 | 26856 | 53620
3 | 11:54.71 | 5:45.04 | 53621 | 79499
4 | 17:40.00 | 4:57.26 | 79500 | 101800
5 | 22:37.26 | 4:59.49 | 101801 | 124274
6 | 27:37.00 | 6:45.02 | 124275 | 154651
7 | 34:22.02 | 1:28.15 | 154652 | 161266
8 | 35:50.17 | 5:54.49 | 161267 | 187865
9 | 41:44.66 | 5:57.25 | 187866 | 214665
10 | 47:42.16 | 6:50.64 | 214666 | 245479
11 | 54:33.05 | 5:27.20 | 245480 | 270024
Range status and errors
Selected range
Filename D:\ilko\Annihilator - Triple Threat - Live At Bang Your Head Festival.wav
Peak level 97.6 %
Extraction speed 4.2 X
Range quality 100.0 %
Test CRC A3B83FAA
Copy CRC A3B83FAA
Copy OK
No errors occurred
AccurateRip summary
Track 1 not present in database
Track 2 not present in database
Track 3 not present in database
Track 4 not present in database
Track 5 not present in database
Track 6 not present in database
Track 7 not present in database
Track 8 not present in database
Track 9 not present in database
Track 10 not present in database
Track 11 not present in database
None of the tracks are present in the AccurateRip database
End of status report
---- CUETools DB Plugin V2.1.6
[CTDB TOCID: HqiPL73YdURDSs3CjFNOFf9EZZY-] found
Submit result: HqiPL73YdURDSs3CjFNOFf9EZZY- has been confirmed
Track | CTDB Status
1 | (7/7) Accurately ripped
2 | (7/7) Accurately ripped
3 | (7/7) Accurately ripped
4 | (7/7) Accurately ripped
5 | (7/7) Accurately ripped
6 | (7/7) Accurately ripped
7 | (7/7) Accurately ripped
8 | (7/7) Accurately ripped
9 | (7/7) Accurately ripped
10 | (7/7) Accurately ripped
11 | (7/7) Accurately ripped
==== Log checksum 5EAB81144A6684B645FF4FDF82D7A61C9DA88BB9D4488DBC21597329D9F70E9A ====
REM GENRE "Thrash Metal"
REM DATE 2017
REM DISCID 910E100B
REM COMMENT "ExactAudioCopy v1.3"
PERFORMER "Annihilator"
TITLE "Triple Threat - Live At Bang Your Head Festival"
FILE "Annihilator - Triple Threat - Live At Bang Your Head Festival.flac" WAVE
TRACK 01 AUDIO
TITLE "King of the Kill"
PERFORMER "Annihilator"
INDEX 00 00:00:00
INDEX 01 00:00:24
TRACK 02 AUDIO
TITLE "No Way Out"
PERFORMER "Annihilator"
INDEX 00 05:58:01
INDEX 01 05:58:06
TRACK 03 AUDIO
TITLE "Creepin' Again"
PERFORMER "Annihilator"
INDEX 00 11:54:51
INDEX 01 11:54:71
TRACK 04 AUDIO
TITLE "Set the World on Fire"
PERFORMER "Annihilator"
INDEX 00 17:39:73
INDEX 01 17:40:00
TRACK 05 AUDIO
TITLE "W.T.Y.D. (Welcome to Your Death)"
PERFORMER "Annihilator"
INDEX 01 22:37:26
TRACK 06 AUDIO
TITLE "Never, Neverland"
PERFORMER "Annihilator"
INDEX 00 27:36:69
INDEX 01 27:37:00
TRACK 07 AUDIO
TITLE "Bliss"
PERFORMER "Annihilator"
INDEX 00 34:21:12
INDEX 01 34:22:02
TRACK 08 AUDIO
TITLE "Second to None"
PERFORMER "Annihilator"
INDEX 01 35:50:17
TRACK 09 AUDIO
TITLE "Refresh the Demon"
PERFORMER "Annihilator"
INDEX 01 41:44:66
TRACK 10 AUDIO
TITLE "Alison Hell"
PERFORMER "Annihilator"
INDEX 00 47:42:00
INDEX 01 47:42:16
TRACK 11 AUDIO
TITLE "Phantasmagoria"
PERFORMER "Annihilator"
INDEX 01 54:33:05
01. Sounds Good to Me
02. Bad Child
03. Innnocent Eyes
04. Snake in the Grass
05. Fantastic Things
06. Holding On
07. Stonewall
08. In the Blood
09. Crystal Ann
10. Phoenix Rising
Exact Audio Copy V1.3 from 2. September 2016
EAC extraction logfile from 17. February 2017, 17:24
Annihilator / Un-Plugged: The Watersound Studios Sessions
Used drive : MATSHITADVD-RAM UJ8G6 Adapter: 1 ID: 0
Read mode : Secure
Utilize accurate stream : Yes
Defeat audio cache : Yes
Make use of C2 pointers : No
Read offset correction : 103
Overread into Lead-In and Lead-Out : No
Fill up missing offset samples with silence : Yes
Delete leading and trailing silent blocks : No
Null samples used in CRC calculations : Yes
Used interface : Native Win32 interface for Win NT & 2000
Used output format : User Defined Encoder
Selected bitrate : 1024 kBit/s
Quality : High
Add ID3 tag : No
Command line compressor : C:\Program Files (x86)\Exact Audio Copy\FLAC\FLAC.EXE
Additional command line options : -V -8 -T "Date=%year%" -T"Genre=%genre%" -T"COMMENT=Ripped by Ilijan - ilko" -8 -V %source%
TOC of the extracted CD
Track | Start | Length | Start sector | End sector
---------------------------------------------------------
1 | 0:00.00 | 5:55.62 | 0 | 26686
2 | 5:55.62 | 4:03.32 | 26687 | 44943
3 | 9:59.19 | 4:20.37 | 44944 | 64480
4 | 14:19.56 | 5:54.17 | 64481 | 91047
5 | 20:13.73 | 5:01.03 | 91048 | 113625
6 | 25:15.01 | 4:10.06 | 113626 | 132381
7 | 29:25.07 | 5:48.29 | 132382 | 158510
8 | 35:13.36 | 4:27.36 | 158511 | 178571
9 | 39:40.72 | 2:07.26 | 178572 | 188122
10 | 41:48.23 | 3:55.22 | 188123 | 205769
Range status and errors
Selected range
Filename D:\ilko\Annihilator - Un-Plugged- The Watersound Studios Sessions.wav
Peak level 99.9 %
Extraction speed 3.9 X
Range quality 100.0 %
Test CRC D177181D
Copy CRC D177181D
Copy OK
No errors occurred
AccurateRip summary
Track 1 not present in database
Track 2 not present in database
Track 3 not present in database
Track 4 not present in database
Track 5 not present in database
Track 6 not present in database
Track 7 not present in database
Track 8 not present in database
Track 9 not present in database
Track 10 not present in database
None of the tracks are present in the AccurateRip database
End of status report
---- CUETools DB Plugin V2.1.6
[CTDB TOCID: y01RiB61Z6LKIFtEawNHdCjDVuM-] found
Submit result: y01RiB61Z6LKIFtEawNHdCjDVuM- has been confirmed
Track | CTDB Status
1 | (7/7) Accurately ripped
2 | (7/7) Accurately ripped
3 | (7/7) Accurately ripped
4 | (7/7) Accurately ripped
5 | (7/7) Accurately ripped
6 | (7/7) Accurately ripped
7 | (7/7) Accurately ripped
8 | (7/7) Accurately ripped
9 | (7/7) Accurately ripped
10 | (7/7) Accurately ripped
==== Log checksum 662A5AC3E2BE87639AC7832C4D48FC633DF46113C64710EB06FE35B037D7D90C ====
REM GENRE "Thrash Metal"
REM DATE 2017
REM DISCID 730AB70A
REM COMMENT "ExactAudioCopy v1.3"
PERFORMER "Annihilator"
TITLE "Un-Plugged: The Watersound Studios Sessions"
FILE "Annihilator - Un-Plugged- The Watersound Studios Sessions.flac" WAVE
TRACK 01 AUDIO
TITLE "Sounds Good to Me"
PERFORMER "Annihilator"
INDEX 01 00:00:00
TRACK 02 AUDIO
TITLE "Bad Child"
PERFORMER "Annihilator"
INDEX 00 05:54:62
INDEX 01 05:55:62
TRACK 03 AUDIO
TITLE "Innocent Eyes"
PERFORMER "Annihilator"
INDEX 00 09:58:19
INDEX 01 09:59:19
TRACK 04 AUDIO
TITLE "Snake in the Grass"
PERFORMER "Annihilator"
INDEX 00 14:18:56
INDEX 01 14:19:56
TRACK 05 AUDIO
TITLE "Fantastic Things"
PERFORMER "Annihilator"
INDEX 00 20:12:73
INDEX 01 20:13:73
TRACK 06 AUDIO
TITLE "Holding On"
PERFORMER "Annihilator"
INDEX 00 25:14:01
INDEX 01 25:15:01
TRACK 07 AUDIO
TITLE "Stonewall"
PERFORMER "Annihilator"
INDEX 00 29:24:07
INDEX 01 29:25:07
TRACK 08 AUDIO
TITLE "In the Blood"
PERFORMER "Annihilator"
INDEX 00 35:12:36
INDEX 01 35:13:36
TRACK 09 AUDIO
TITLE "Crystal Ann"
PERFORMER "Annihilator"
INDEX 00 39:39:72
INDEX 01 39:40:72
TRACK 10 AUDIO
TITLE "Phoenix Rising"
PERFORMER "Annihilator"
INDEX 00 41:47:23
INDEX 01 41:48:23
Download / Скачать

Хотите скачать бесплатно? Зарегистрируйтесь на сайте (ссылка на регистрацию). Pirat.ca - самый быстрый торрент трекер в рунете!

Как скачивать  ·   Что такое торрент  ·   Рейтинг и ограничения

Показать сообщения:    
Ответить на тему

Текущее время: Сегодня 02:58

Часовой пояс: GMT + 4



Вы не можете начинать темы
Вы не можете отвечать на сообщения
Вы не можете редактировать свои сообщения
Вы не можете удалять свои сообщения
Вы не можете голосовать в опросах
Вы не можете прикреплять файлы к сообщениям
Вы не можете скачивать файлы

▼ Вниз