Уважаемый Гость!
Вы можете поддержать проект и зарегистрироваться у наших партнеров - онлайн-стратегия MyLands. При регистрации в игре Вы получите код, который сможете активировать после регистрации на pirat.ca и получить 1000 дублонов.

Ваш код:
d49a3625bbdee1b82b14274f97c375f8b2b2ee4c
 
     

(Black Metal, Post Rock) Harakiri for the Sky - III: Trauma - 2016 [FLAC, image+.cue, lossless]

Ответить на тему
 
Автор
Сообщение

Пост 13-Мар-2017 02:45

[Q] 

Дядя Вова

Гроза морей

-Harakiri for the Sky - III: Trauma-- Год издания: 2016
Страна: Austria
Жанр: Black Metal, Post Rock
Продолжительность: 01:15:14-Лейбл издания: Art Of Propaganda
Тип альбома: Master
Страна-выпуска диска: 22 Jul 2016 Germany
Формат: FLAC
Битрейт аудио: lossless
Тип рипа: image+.cue
Наличие сканов в содержимом раздачи: да-
01. Calling the Rain
02. Funeral Dreams
03. Thanatos
04. This Life as a Dagger
05. The Traces We Leave
06. Viaticum
07. Dry the River
08. Bury Me
Exact Audio Copy V1.2 from 12. August 2016
EAC extraction logfile from 8. March 2017, 17:20
Harakiri for the Sky / III: Trauma
Used drive : PLEXTOR DVDR PX-891SA Adapter: 1 ID: 1
Read mode : Secure
Utilize accurate stream : Yes
Defeat audio cache : Yes
Make use of C2 pointers : No
Read offset correction : 6
Overread into Lead-In and Lead-Out : No
Fill up missing offset samples with silence : Yes
Delete leading and trailing silent blocks : No
Null samples used in CRC calculations : Yes
Used interface : Native Win32 interface for Win NT & 2000
Used output format : User Defined Encoder
Selected bitrate : 896 kBit/s
Quality : High
Add ID3 tag : No
Command line compressor : C:\Program Files (x86)\Exact Audio Copy\Flac\flac.exe
Additional command line options : -6 -V %source%
TOC of the extracted CD
Track | Start | Length | Start sector | End sector
---------------------------------------------------------
1 | 0:00.00 | 11:28.53 | 0 | 51652
2 | 11:28.53 | 8:58.44 | 51653 | 92046
3 | 20:27.22 | 9:21.17 | 92047 | 134138
4 | 29:48.39 | 9:26.41 | 134139 | 176629
5 | 39:15.05 | 8:33.01 | 176630 | 215105
6 | 47:48.06 | 8:38.15 | 215106 | 253970
7 | 56:26.21 | 9:50.45 | 253971 | 298265
8 | 66:16.66 | 8:57.09 | 298266 | 338549
Range status and errors
Selected range
Filename D:\MeTaLMaDNeSS.TeaM\Harakiri for the sky (AUT) - III Trauma (Digipak)\Harakiri for the Sky - III- Trauma.wav
Peak level 100.0 %
Extraction speed 3.6 X
Range quality 100.0 %
Test CRC CAB81E73
Copy CRC CAB81E73
Copy OK
No errors occurred
AccurateRip summary
Track 1 accurately ripped (confidence 3) [8B7433F2] (AR v2)
Track 2 accurately ripped (confidence 3) [DDDABE54] (AR v2)
Track 3 accurately ripped (confidence 3) [D6275208] (AR v2)
Track 4 accurately ripped (confidence 3) [A68059D0] (AR v2)
Track 5 accurately ripped (confidence 3) [EBCF6616] (AR v2)
Track 6 accurately ripped (confidence 3) [903B143B] (AR v2)
Track 7 accurately ripped (confidence 3) [5F079A08] (AR v2)
Track 8 accurately ripped (confidence 3) [A56638C3] (AR v2)
All tracks accurately ripped
End of status report
---- CUETools DB Plugin V2.1.6
[CTDB TOCID: xRZEfBwREHnIA1LZZU.aayFCkSg-] found
Submit result: xRZEfBwREHnIA1LZZU.aayFCkSg- has been confirmed
Track | CTDB Status
1 | (25/25) Accurately ripped
2 | (25/25) Accurately ripped
3 | (24/25) Accurately ripped
4 | (25/25) Accurately ripped
5 | (25/25) Accurately ripped
6 | (25/25) Accurately ripped
7 | (25/25) Accurately ripped
8 | (24/25) Accurately ripped
==== Log checksum 91FBB515F10B779F83088DB66AAB4B89D585E4A2D0149A428DF1126DB50DF2F4 ====
REM GENRE "Black Metal"
REM DATE 2016
REM DISCID 8311A208
REM COMMENT "ExactAudioCopy v1.2"
PERFORMER "Harakiri for the Sky"
TITLE "III: Trauma"
REM COMPOSER ""
FILE "Harakiri for the Sky - III- Trauma.flac" WAVE
TRACK 01 AUDIO
TITLE "Calling the Rain"
PERFORMER "Harakiri for the Sky"
REM COMPOSER ""
INDEX 01 00:00:00
TRACK 02 AUDIO
TITLE "Funeral Dreams"
PERFORMER "Harakiri for the Sky"
REM COMPOSER ""
INDEX 01 11:28:53
TRACK 03 AUDIO
TITLE "Thanatos"
PERFORMER "Harakiri for the Sky"
REM COMPOSER ""
INDEX 01 20:27:22
TRACK 04 AUDIO
TITLE "This Life as a Dagger"
PERFORMER "Harakiri for the Sky"
REM COMPOSER ""
INDEX 01 29:48:39
TRACK 05 AUDIO
TITLE "The Traces We Leave"
PERFORMER "Harakiri for the Sky"
REM COMPOSER ""
INDEX 01 39:15:05
TRACK 06 AUDIO
TITLE "Viaticum"
PERFORMER "Harakiri for the Sky"
REM COMPOSER ""
INDEX 01 47:48:06
TRACK 07 AUDIO
TITLE "Dry the River"
PERFORMER "Harakiri for the Sky"
REM COMPOSER ""
INDEX 01 56:26:21
TRACK 08 AUDIO
TITLE "Bury Me"
PERFORMER "Harakiri for the Sky"
REM COMPOSER ""
INDEX 01 66:16:66
Download / Скачать

Хотите скачать бесплатно? Зарегистрируйтесь на сайте (ссылка на регистрацию). Pirat.ca - самый быстрый торрент трекер в рунете!

Как скачивать  ·   Что такое торрент  ·   Рейтинг и ограничения

Показать сообщения:    
Ответить на тему

Текущее время: Сегодня 19:36

Часовой пояс: GMT + 4



Вы не можете начинать темы
Вы не можете отвечать на сообщения
Вы не можете редактировать свои сообщения
Вы не можете удалять свои сообщения
Вы не можете голосовать в опросах
Вы не можете прикреплять файлы к сообщениям
Вы не можете скачивать файлы

▼ Вниз