Уважаемый Гость!
Вы можете поддержать проект и зарегистрироваться у наших партнеров - онлайн-стратегия MyLands. При регистрации в игре Вы получите код, который сможете активировать после регистрации на pirat.ca и получить 1000 дублонов.

Ваш код:
b35b3ec45a7bd3f86315766471edc285be832af4
 
     

(Symphonic Metal, Gothic Metal) Xandria - Theater Of Dimensions - (2cd edition) - 2017 [FLAC, image+.cue, lossless]

Ответить на тему
 
Автор
Сообщение

Пост 13-Мар-2017 03:35

[Q] 

Дядя Вова

Гроза морей

-Xandria - Theater Of Dimensions - (2cd edition)-- Год издания: 2017
Страна: Bielefeld, North Rhine-Westphalia, Germany
Жанр: Symphonic Metal, Gothic Metal
Продолжительность: 8756786-Лейбл издания: Napalm Records
Тип альбома: Master + Acoustic
Страна-выпуска диска: January 27th, 2017 Germany
Номер по каталогу: [NPR698MB]
Формат: FLAC
Битрейт аудио: lossless
Тип рипа: image+.cue
Наличие сканов в содержимом раздачи: да-
01. Where the Heart Is Home
02. Death to the Holy
03. Forsaken Love
04. Call of Destiny
05. We Are Murderers (We All)
06. Dark Night of the Soul
07. When the Walls Came Down (Heartache Was Born)
08. Ship of Doom
09. Ceilí
10. Song for Sorrow and Woe
11. Burn Me
12. Queen of Hearts Reborn
13. A Theater of Dimensions
Exact Audio Copy V1.3 from 2. September 2016
EAC extraction logfile from 26. January 2017, 16:01
Xandria / Theater Of Dimensions (CD1)
Used drive : ATAPI iHAS122 W Adapter: 2 ID: 0
Read mode : Secure
Utilize accurate stream : Yes
Defeat audio cache : Yes
Make use of C2 pointers : No
Read offset correction : 48
Overread into Lead-In and Lead-Out : No
Fill up missing offset samples with silence : Yes
Delete leading and trailing silent blocks : No
Null samples used in CRC calculations : Yes
Used interface : Installed external ASPI interface
Used output format : User Defined Encoder
Selected bitrate : 1024 kBit/s
Quality : High
Add ID3 tag : No
Command line compressor : C:\Program Files\FLAC\flac.exe
Additional command line options : -V -8 -T "Date=%year%" -T "Genre=%genre%" -T"COMMENT=Ripped by Ilijan" -8 -V %source%
TOC of the extracted CD
Track | Start | Length | Start sector | End sector
---------------------------------------------------------
1 | 0:00.00 | 6:53.32 | 0 | 31006
2 | 6:53.32 | 4:46.68 | 31007 | 52524
3 | 11:40.25 | 4:20.30 | 52525 | 72054
4 | 16:00.55 | 4:10.58 | 72055 | 90862
5 | 20:11.38 | 5:51.45 | 90863 | 117232
6 | 26:03.08 | 5:21.13 | 117233 | 141320
7 | 31:24.21 | 5:11.18 | 141321 | 164663
8 | 36:35.39 | 4:50.30 | 164664 | 186443
9 | 41:25.69 | 3:21.48 | 186444 | 201566
10 | 44:47.42 | 5:24.34 | 201567 | 225900
11 | 50:12.01 | 4:42.06 | 225901 | 247056
12 | 54:54.07 | 5:16.48 | 247057 | 270804
13 | 60:10.55 | 14:22.31 | 270805 | 335485
Range status and errors
Selected range
Filename D:\ilко\Xandria - Theater Of Dimensions (CD1).wav
Peak level 98.9 %
Extraction speed 3.5 X
Range quality 100.0 %
Test CRC F061DC99
Copy CRC F061DC99
Copy OK
No errors occurred
AccurateRip summary
Track 1 not present in database
Track 2 not present in database
Track 3 not present in database
Track 4 not present in database
Track 5 not present in database
Track 6 not present in database
Track 7 not present in database
Track 8 not present in database
Track 9 not present in database
Track 10 not present in database
Track 11 not present in database
Track 12 not present in database
Track 13 not present in database
None of the tracks are present in the AccurateRip database
End of status report
---- CUETools DB Plugin V2.1.6
[CTDB TOCID: JlzP5PaacS6OOkfz5Ak3xVWnKhY-] found
Submit result: JlzP5PaacS6OOkfz5Ak3xVWnKhY- has been confirmed
Track | CTDB Status
1 | (2/2) Accurately ripped
2 | (2/2) Accurately ripped
3 | (2/2) Accurately ripped
4 | (2/2) Accurately ripped
5 | (2/2) Accurately ripped
6 | (2/2) Accurately ripped
7 | (2/2) Accurately ripped
8 | (2/2) Accurately ripped
9 | (2/2) Accurately ripped
10 | (2/2) Accurately ripped
11 | (2/2) Accurately ripped
12 | (2/2) Accurately ripped
13 | (2/2) Accurately ripped
==== Log checksum 4B1154ED23739BC7979E5058AA806D21419F3B2F195AFADDF35D391D4EF7BB5E ====
REM GENRE Symphonic Metal
REM DATE 2017
REM DISCID BE11790D
REM COMMENT ExactAudioCopy v1.3
PERFORMER "Xandria"
TITLE "Theater Of Dimensions"
FILE "Xandria - Theater Of Dimensions.flac" WAVE
TRACK 01 AUDIO
TITLE "Where The Heart Is Home"
INDEX 01 00:00:00
TRACK 02 AUDIO
TITLE "Death To The Holy"
INDEX 01 06:53:32
TRACK 03 AUDIO
TITLE "Forsaken Love"
INDEX 01 11:40:25
TRACK 04 AUDIO
TITLE "Call Of Destiny"
INDEX 01 16:00:55
TRACK 05 AUDIO
TITLE "We Are Murderers (We All)"
INDEX 01 20:11:38
TRACK 06 AUDIO
TITLE "Dark Night Of The Soul"
INDEX 01 26:03:08
TRACK 07 AUDIO
TITLE "When The Walls Came Down (Heartache Was Born)"
INDEX 01 31:24:21
TRACK 08 AUDIO
TITLE "Ship Of Doom"
INDEX 01 36:35:39
TRACK 09 AUDIO
TITLE "Ceili"
INDEX 01 41:25:69
TRACK 10 AUDIO
TITLE "Song For Sorrow And Woe"
INDEX 01 44:47:42
TRACK 11 AUDIO
TITLE "Burn Me"
INDEX 01 50:12:01
TRACK 12 AUDIO
TITLE "Queen Of Hearts Reborn"
INDEX 01 54:54:07
TRACK 13 AUDIO
TITLE "A Theater Of Dimensions"
INDEX 01 60:10:55
01. Call of Destiny
02. Dark Night of the Soul
03. In Remembrance
04. Sweet Atonement
05. Valentine
Exact Audio Copy V1.3 from 2. September 2016
EAC extraction logfile from 26. January 2017, 16:30
Xandria / Theater Of Dimensions (CD2)
Used drive : ATAPI iHAS122 W Adapter: 2 ID: 0
Read mode : Secure
Utilize accurate stream : Yes
Defeat audio cache : Yes
Make use of C2 pointers : No
Read offset correction : 48
Overread into Lead-In and Lead-Out : No
Fill up missing offset samples with silence : Yes
Delete leading and trailing silent blocks : No
Null samples used in CRC calculations : Yes
Used interface : Installed external ASPI interface
Used output format : User Defined Encoder
Selected bitrate : 1024 kBit/s
Quality : High
Add ID3 tag : No
Command line compressor : C:\Program Files\FLAC\flac.exe
Additional command line options : -V -8 -T "Date=%year%" -T "Genre=%genre%" -T"COMMENT=Ripped by Ilijan" -8 -V %source%
TOC of the extracted CD
Track | Start | Length | Start sector | End sector
---------------------------------------------------------
1 | 0:00.00 | 5:04.26 | 0 | 22825
2 | 5:04.26 | 4:33.15 | 22826 | 43315
3 | 9:37.41 | 2:54.05 | 43316 | 56370
4 | 12:31.46 | 3:31.06 | 56371 | 72201
5 | 16:02.52 | 3:28.64 | 72202 | 87865
Range status and errors
Selected range
Filename D:\ilко\Xandria - Theater Of Dimensions (CD2).wav
Peak level 99.8 %
Extraction speed 2.5 X
Range quality 100.0 %
Test CRC A194CFDC
Copy CRC A194CFDC
Copy OK
No errors occurred
AccurateRip summary
Track 1 not present in database
Track 2 not present in database
Track 3 not present in database
Track 4 not present in database
Track 5 not present in database
None of the tracks are present in the AccurateRip database
End of status report
---- CUETools DB Plugin V2.1.6
[CTDB TOCID: yVNgl2LR4r1bbEnWqamTLz99oqI-] found
Submit result: yVNgl2LR4r1bbEnWqamTLz99oqI- has been confirmed
Track | CTDB Status
1 | (2/2) Accurately ripped
2 | (2/2) Accurately ripped
3 | (2/2) Accurately ripped
4 | (2/2) Accurately ripped
5 | (2/2) Accurately ripped
==== Log checksum D42AF2D096C51D8164DD9EBF74D8C9C9BBCBE28196790ABD94AB6BF6512222A8 ====
REM GENRE Symphonic Metal
REM DATE 2017
REM DISCID 42049305
REM COMMENT ExactAudioCopy v1.3
PERFORMER "Xandria"
TITLE "Acoustic Album"
FILE "Xandria - Acoustic Album.flac" WAVE
TRACK 01 AUDIO
TITLE "Call Of Destiny (Acoustic Version)"
INDEX 01 00:00:00
TRACK 02 AUDIO
TITLE "Dark Night Of The Soul (Acoustic Version)"
INDEX 01 05:04:26
TRACK 03 AUDIO
TITLE "In Remembrance (Acoustic Version)"
INDEX 01 09:37:41
TRACK 04 AUDIO
TITLE "Sweet Atonement (Acoustic Version)"
INDEX 01 12:31:46
TRACK 05 AUDIO
TITLE "Valentine (Acoustic Version)"
INDEX 01 16:02:52
Download / Скачать

Хотите скачать бесплатно? Зарегистрируйтесь на сайте (ссылка на регистрацию). Pirat.ca - самый быстрый торрент трекер в рунете!

Как скачивать  ·   Что такое торрент  ·   Рейтинг и ограничения

kostyawerty

Шкипер

Пост 01-Июл-2017 13:55 (спустя 3 месяца 19 дней)

[Q] 

встаньте ра раздачу,пожалуйста
[Профиль]  [ЛС] 
Показать сообщения:    
Ответить на тему

Текущее время: Сегодня 19:01

Часовой пояс: GMT + 4



Вы не можете начинать темы
Вы не можете отвечать на сообщения
Вы не можете редактировать свои сообщения
Вы не можете удалять свои сообщения
Вы не можете голосовать в опросах
Вы не можете прикреплять файлы к сообщениям
Вы не можете скачивать файлы

▼ Вниз