Уважаемый Гость!
Вы можете поддержать проект и зарегистрироваться у наших партнеров - онлайн-стратегия MyLands. При регистрации в игре Вы получите код, который сможете активировать после регистрации на pirat.ca и получить 1000 дублонов.

Ваш код:
d49a3625bbdee1b82b14274f97c375f8b2b2ee4c
 
     

(Heavy Metal, Hard Rock) Deep Purple - All I Got Is You (EP) - 2017 [FLAC, image+.cue, lossless]

Ответить на тему
 
Автор
Сообщение

Пост 28-Мар-2017 03:14

[Q] 

Дядя Вова

Гроза морей

-Deep Purple - All I Got Is You (EP)-- Год издания: 2017
Страна: U.K. Hertford, England
Жанр: Heavy Metal, Hard Rock
Продолжительность: 00:21:14-Лейбл издания: Ear Music
Тип альбома: EP
Страна-выпуска диска: March 10, 2017 / Germany / First Press
Номер по каталогу: 0211855EMU
Формат: FLAC
Битрейт аудио: lossless
Тип рипа: image+.cue
Наличие сканов в содержимом раздачи: да-
1 All I Got Is You (Album Version)
2 Simple Folk (An Solo Guitar Improvisation By Steve Morse)
3 Above And Beyond (Previously Unreleased Instrumental Version)
4 Time For Bedlam (First Take From The Album Recordings)
5 Highway Star (Previously Unreleased Live Version)
Exact Audio Copy V1.1 from 23. June 2015
EAC extraction logfile from 10. March 2017, 12:02
Deep Purple / All I Got Is You
Used drive : TSSTcorpBDDVDW SE-506CB Adapter: 1 ID: 1
Read mode : Secure
Utilize accurate stream : Yes
Defeat audio cache : Yes
Make use of C2 pointers : No
Read offset correction : 6
Overread into Lead-In and Lead-Out : No
Fill up missing offset samples with silence : Yes
Delete leading and trailing silent blocks : No
Null samples used in CRC calculations : Yes
Used interface : Native Win32 interface for Win NT & 2000
Used output format : User Defined Encoder
Selected bitrate : 1024 kBit/s
Quality : High
Add ID3 tag : No
Command line compressor : C:\Program Files (x86)\Exact Audio Copy\Flac\flac.exe
Additional command line options : -V -8 -T "Date=%year%" -T "Genre=%genre%" %source%
TOC of the extracted CD
Track | Start | Length | Start sector | End sector
---------------------------------------------------------
1 | 0:00.00 | 4:41.70 | 0 | 21144
2 | 4:41.70 | 1:15.53 | 21145 | 26822
3 | 5:57.48 | 5:29.62 | 26823 | 51559
4 | 11:27.35 | 3:38.05 | 51560 | 67914
5 | 15:05.40 | 6:08.55 | 67915 | 95569
Range status and errors
Selected range
Filename C:\EAC\Ungern666\Deep Purple - All I Got Is You.wav
Peak level 100.0 %
Extraction speed 1.5 X
Range quality 100.0 %
Test CRC 35411F4A
Copy CRC 35411F4A
Copy OK
No errors occurred
AccurateRip summary
Track 1 not present in database
Track 2 not present in database
Track 3 not present in database
Track 4 not present in database
Track 5 not present in database
None of the tracks are present in the AccurateRip database
End of status report
---- CUETools DB Plugin V2.1.6
[CTDB TOCID: a0cwhnSpF4oW5E7D0wAQnMy7Bzg-] disk not present in database
Submit result: a0cwhnSpF4oW5E7D0wAQnMy7Bzg- has been uploaded
==== Log checksum F2F0698178EC09732D45FD0D35B66A6725CF1B8D602547D95F92AB6363EEFFD6 ====
REM GENRE "Hard Rock"
REM DATE 2017
REM DISCID 4704FA05
REM COMMENT "ExactAudioCopy v1.1"
PERFORMER "Deep Purple"
TITLE "All I Got Is You"
FILE "Deep Purple - All I Got Is You.flac" WAVE
TRACK 01 AUDIO
TITLE "All I Got Is You (Album Version)"
PERFORMER "Deep Purple"
INDEX 01 00:00:00
TRACK 02 AUDIO
TITLE "Simple Folk (An Solo Guitar Improvisation By Steve Morse)"
PERFORMER "Deep Purple"
INDEX 01 04:41:70
TRACK 03 AUDIO
TITLE "Above And Beyond (Previously Unreleased Instrumental Version)"
PERFORMER "Deep Purple"
INDEX 01 05:57:48
TRACK 04 AUDIO
TITLE "Time For Bedlam (First Take From The Album Recordings)"
PERFORMER "Deep Purple"
INDEX 01 11:27:35
TRACK 05 AUDIO
TITLE "Highway Star (Previously Unreleased Live Version)"
PERFORMER "Deep Purple"
INDEX 01 15:05:40
Download / Скачать

Хотите скачать бесплатно? Зарегистрируйтесь на сайте (ссылка на регистрацию). Pirat.ca - самый быстрый торрент трекер в рунете!

Как скачивать  ·   Что такое торрент  ·   Рейтинг и ограничения

Показать сообщения:    
Ответить на тему

Текущее время: Сегодня 19:34

Часовой пояс: GMT + 4



Вы не можете начинать темы
Вы не можете отвечать на сообщения
Вы не можете редактировать свои сообщения
Вы не можете удалять свои сообщения
Вы не можете голосовать в опросах
Вы не можете прикреплять файлы к сообщениям
Вы не можете скачивать файлы

▼ Вниз