Уважаемый Гость!
Вы можете поддержать проект и зарегистрироваться у наших партнеров - онлайн-стратегия MyLands. При регистрации в игре Вы получите код, который сможете активировать после регистрации на pirat.ca и получить 1000 дублонов.

Ваш код:
bf76b4fde44c7189cfb4d32d5b204facc1d6d492
 
     

(Heavy/Power Metal) Striker - Striker - (Japanese Edition) - 2017 [FLAC, image+.cue, lossless]

Ответить на тему
 
Автор
Сообщение

Пост 30-Мар-2017 20:41

[Q] 

Дядя Вова

Гроза морей

-Striker - Striker - (Japanese Edition)-- Год издания: 2017
Страна: Edmonton, Alberta, Canada
Жанр: Heavy/Power Metal
Продолжительность: 00:43:06-Лейбл издания: Avalon/Marquee Inc.
Тип альбома: Master
Страна-выпуска диска: March 22nd, 2017 Japan
Номер по каталогу: [MICP-11344]
Формат: FLAC
Битрейт аудио: lossless
Тип рипа: image+.cue
Наличие сканов в содержимом раздачи: да-
01. Former Glory
02. Pass Me By
03. Born to Lose
04. Cheating Death
05. Shadows in the Light
06. Rock the Night
07. Over the Top
08. Freedom's Call
09. Curse of the Dead
10. Desire (Ozzy Osbourne Cover) (Bonus Track)
11. Heart of a Lion (Bonus Track)
Exact Audio Copy V1.3 from 2. September 2016
EAC extraction logfile from 27. March 2017, 12:02
Striker / Striker (Japan)
Used drive : ATAPI iHAS122 W Adapter: 2 ID: 0
Read mode : Secure
Utilize accurate stream : Yes
Defeat audio cache : Yes
Make use of C2 pointers : No
Read offset correction : 48
Overread into Lead-In and Lead-Out : No
Fill up missing offset samples with silence : Yes
Delete leading and trailing silent blocks : No
Null samples used in CRC calculations : Yes
Used interface : Installed external ASPI interface
Used output format : User Defined Encoder
Selected bitrate : 1024 kBit/s
Quality : High
Add ID3 tag : No
Command line compressor : C:\Program Files\FLAC\flac.exe
Additional command line options : -V -8 -T "Date=%year%" -T "Genre=%genre%" -T"COMMENT=Ripped by Ilijan - ilko" -8 -V %source%
TOC of the extracted CD
Track | Start | Length | Start sector | End sector
---------------------------------------------------------
1 | 0:00.00 | 4:00.52 | 0 | 18051
2 | 4:00.52 | 3:36.02 | 18052 | 34253
3 | 7:36.54 | 3:59.69 | 34254 | 52247
4 | 11:36.48 | 0:54.44 | 52248 | 56341
5 | 12:31.17 | 3:30.50 | 56342 | 72141
6 | 16:01.67 | 4:32.06 | 72142 | 92547
7 | 20:33.73 | 4:40.14 | 92548 | 113561
8 | 25:14.12 | 4:31.30 | 113562 | 133916
9 | 29:45.42 | 3:51.51 | 133917 | 151292
10 | 33:37.18 | 5:26.61 | 151293 | 175803
11 | 39:04.04 | 4:01.38 | 175804 | 193916
Range status and errors
Selected range
Filename D:\ilko\Striker - Striker (Japan).wav
Peak level 100.0 %
Extraction speed 3.6 X
Range quality 100.0 %
Test CRC 48EF3E86
Copy CRC 48EF3E86
Copy OK
No errors occurred
AccurateRip summary
Track 1 not present in database
Track 2 not present in database
Track 3 not present in database
Track 4 not present in database
Track 5 not present in database
Track 6 not present in database
Track 7 not present in database
Track 8 not present in database
Track 9 not present in database
Track 10 not present in database
Track 11 not present in database
None of the tracks are present in the AccurateRip database
End of status report
---- CUETools DB Plugin V2.1.6
[CTDB TOCID: LcRIpmn_jil2GJPfoJ3GMEnH8iY-] disk not present in database
Submit result: LcRIpmn_jil2GJPfoJ3GMEnH8iY- has been uploaded
==== Log checksum 9C02795F3FA4DA7E6FCC717C033E95AA606A670A45D04CD85A0ACE9D7B8EF57E ====
REM GENRE Heavy/Power Metal
REM DATE 2017
REM DISCID 9D0A190B
REM COMMENT ExactAudioCopy v1.3
PERFORMER "Striker"
TITLE "Striker"
FILE "Striker - Striker.flac" WAVE
TRACK 01 AUDIO
TITLE "Former Glory"
INDEX 01 00:00:00
TRACK 02 AUDIO
TITLE "Pass Me By"
INDEX 01 04:00:52
TRACK 03 AUDIO
TITLE "Born To Lose"
INDEX 01 07:36:54
TRACK 04 AUDIO
TITLE "Cheating Death"
INDEX 01 11:36:48
TRACK 05 AUDIO
TITLE "Shadows In The Light"
INDEX 01 12:31:17
TRACK 06 AUDIO
TITLE "Rock The Night"
INDEX 01 16:01:67
TRACK 07 AUDIO
TITLE "Over The Top"
INDEX 01 20:33:73
TRACK 08 AUDIO
TITLE "Freedom's Call"
INDEX 01 25:14:12
TRACK 09 AUDIO
TITLE "Curse Of The Dead"
INDEX 01 29:45:42
TRACK 10 AUDIO
TITLE "Desire (Bonus Track)"
INDEX 00 33:35:18
INDEX 01 33:37:18
TRACK 11 AUDIO
TITLE "Heart Of A Lion (Bonus Track)"
INDEX 01 39:04:04
Download / Скачать

Хотите скачать бесплатно? Зарегистрируйтесь на сайте (ссылка на регистрацию). Pirat.ca - самый быстрый торрент трекер в рунете!

Как скачивать  ·   Что такое торрент  ·   Рейтинг и ограничения

Показать сообщения:    
Ответить на тему

Текущее время: Сегодня 12:26

Часовой пояс: GMT + 4



Вы не можете начинать темы
Вы не можете отвечать на сообщения
Вы не можете редактировать свои сообщения
Вы не можете удалять свои сообщения
Вы не можете голосовать в опросах
Вы не можете прикреплять файлы к сообщениям
Вы не можете скачивать файлы

▼ Вниз