Уважаемый Гость!
Вы можете поддержать проект и зарегистрироваться у наших партнеров - онлайн-стратегия MyLands. При регистрации в игре Вы получите код, который сможете активировать после регистрации на pirat.ca и получить 1000 дублонов.

Ваш код:
1b8effbb2d91248629d5897a85d0d1c4a4c433f0
 
     

(Death Metal) Immolation - Atonement - 2017 [FLAC, image+.cue, lossless]

Ответить на тему
 
Автор
Сообщение

Пост 30-Мар-2017 20:54

[Q] 

Дядя Вова

Гроза морей

-Immolation - Atonement-- Год издания: 2017
Страна: USA
Жанр: Death Metal
Продолжительность: 00:48:47-Лейбл издания: Nuclear Blast
Тип альбома: Master
Страна-выпуска диска: 2017, Russia
Номер по каталогу: [3511-0]
Формат: FLAC
Битрейт аудио: lossless
Тип рипа: image+.cue
Наличие сканов в содержимом раздачи: да-
1 The Distorting Light 3:15
2 When The Jackals Come 3:54
3 Fostering The Divide 3:28
4 Rise The Heretics 3:42
5 Thrown To The Fire 4:04
6 Destructive Currents 4:26
7 Lower 4:02
8 Atonement 4:32
9 Above All 4:55
10 The Power Of Gods 3:59
11 Epiphany 4:23
12 Immolation (Bonus Track) 4:15
Exact Audio Copy V1.3 from 2. September 2016
Отчёт EAC об извлечении, выполненном 23. марта 2017, 9:37
Immolation / Atonement
Дисковод: Optiarc DVD RW AD-5200A Adapter: 1 ID: 0
Режим чтения : Достоверность
Использование точного потока : Да
Отключение кэша аудио : Да
Использование указателей C2 : Нет
Коррекция смещения при чтении : 48
Способность читать области Lead-in и Lead-out : Нет
Заполнение пропущенных сэмплов тишиной : Да
Удаление блоков с тишиной в начале и конце : Нет
При вычислениях CRC использовались нулевые сэмплы : Да
Интерфейс : Встроенный Win32-интерфейс для Win NT/2000
Выходной формат : Пользовательский кодировщик
Выбранный битрейт : 128 kBit/s
Качество : Высокий
Добавление ID3-тега : Нет
Утилита сжатия : G:\Exact Audio Copy\FLAC\FLAC.EXE
Дополнительные параметры : -6 -V -T "ARTIST=%artist%" -T "TITLE=%title%" -T "ALBUM=%albumtitle%" -T "DATE=%year%" -T "TRACKNUMBER=%tracknr%" -T "GENRE=%genre%" -T "COMMENT=%comment%" -T "BAND=%albuminterpret%" -T "ALBUMARTIST=%albuminterpret%" -T "COMPOSER=%composer%" %haslyrics%--tag-from-file=LYRICS="%lyricsfile%"%haslyrics% -T "DISCNUMBER=%cdnumber%" -T "TOTALDISCS=%totalcds%" -T "TOTALTRACKS=%numtracks%" %hascover%--picture="%coverfile%"%hascover% %source% -o %dest%
TOC извлечённого CD
Трек | Старт | Длительность | Начальный сектор | Конечный сектор
---------------------------------------------------------------------
1 | 0:00.00 | 3:14.49 | 0 | 14598
2 | 3:14.49 | 3:54.25 | 14599 | 32173
3 | 7:08.74 | 3:27.52 | 32174 | 47750
4 | 10:36.51 | 3:41.28 | 47751 | 64353
5 | 14:18.04 | 4:04.50 | 64354 | 82703
6 | 18:22.54 | 4:26.03 | 82704 | 102656
7 | 22:48.57 | 4:01.29 | 102657 | 120760
8 | 26:50.11 | 4:32.33 | 120761 | 141193
9 | 31:22.44 | 4:55.05 | 141194 | 163323
10 | 36:17.49 | 3:58.59 | 163324 | 181232
11 | 40:16.33 | 4:22.43 | 181233 | 200925
12 | 44:39.01 | 4:14.46 | 200926 | 220021
Характеристики диапазона извлечения и сообщения об ошибках
Выбранный диапазон
Имя файла G:\музыка\Immolation - Atonement.wav
Пиковый уровень 99.7 %
Скорость извлечения 3.7 X
Качество диапазона 100.0 %
CRC теста DF10D26D
CRC копии DF10D26D
Копирование... OK
Ошибок не произошло
AccurateRip: сводка
Трек 1 : извлечено точно (доверие 2) [2AA22762] (AR v2)
Трек 2 : извлечено точно (доверие 2) [C81C381A] (AR v2)
Трек 3 : извлечено точно (доверие 2) [1866A6E7] (AR v2)
Трек 4 : извлечено точно (доверие 2) [3FF35C53] (AR v2)
Трек 5 : извлечено точно (доверие 2) [636A3EE2] (AR v2)
Трек 6 : извлечено точно (доверие 2) [87098256] (AR v2)
Трек 7 : извлечено точно (доверие 2) [839D610C] (AR v2)
Трек 8 : извлечено точно (доверие 2) [DABDB82B] (AR v2)
Трек 9 : извлечено точно (доверие 2) [57B9633C] (AR v2)
Трек 10 : извлечено точно (доверие 2) [A2201ECE] (AR v2)
Трек 11 : извлечено точно (доверие 2) [A122CE7F] (AR v2)
Трек 12 : извлечено точно (доверие 2) [8A518A28] (AR v2)
Все треки извлечены точно
Конец отчёта
---- CUETools DB Plugin V2.1.6
[CTDB TOCID: CCj8WkVb1f_1.MK0KrGLDuJ3os0-] found
Submit result: CCj8WkVb1f_1.MK0KrGLDuJ3os0- has been confirmed
Track | CTDB Status
1 | (36/36) Accurately ripped
2 | (36/36) Accurately ripped
3 | (36/36) Accurately ripped
4 | (36/36) Accurately ripped
5 | (36/36) Accurately ripped
6 | (36/36) Accurately ripped
7 | (36/36) Accurately ripped
8 | (36/36) Accurately ripped
9 | (36/36) Accurately ripped
10 | (36/36) Accurately ripped
11 | (36/36) Accurately ripped
12 | (35/36) Accurately ripped
==== Контрольная сумма отчёта 3236E24CD36F8EFEF4145EB99FE3444BD58F895F188E8BDD7E907F7C479A0FA8 ====
REM GENRE "Death Metal"
REM DATE 2017
REM DISCID 9B0B750C
REM COMMENT "ExactAudioCopy v1.3"
PERFORMER "Immolation"
TITLE "Atonement"
REM COMPOSER ""
FILE "Immolation - Atonement.flac" WAVE
TRACK 01 AUDIO
TITLE "The Distorting Light"
PERFORMER "Immolation"
REM COMPOSER ""
ISRC DED831601187
INDEX 01 00:00:00
TRACK 02 AUDIO
TITLE "When The Jackals Come"
PERFORMER "Immolation"
REM COMPOSER ""
ISRC DED831601188
INDEX 01 03:14:49
TRACK 03 AUDIO
TITLE "Fostering The Divide"
PERFORMER "Immolation"
REM COMPOSER ""
ISRC DED831601189
INDEX 01 07:08:74
TRACK 04 AUDIO
TITLE "Rise The Heretics"
PERFORMER "Immolation"
REM COMPOSER ""
ISRC DED831601190
INDEX 01 10:36:51
TRACK 05 AUDIO
TITLE "Thrown To The Fire"
PERFORMER "Immolation"
REM COMPOSER ""
ISRC DED831601191
INDEX 01 14:18:04
TRACK 06 AUDIO
TITLE "Destructive Currents"
PERFORMER "Immolation"
REM COMPOSER ""
ISRC DED831601192
INDEX 01 18:22:54
TRACK 07 AUDIO
TITLE "Lower"
PERFORMER "Immolation"
REM COMPOSER ""
ISRC DED831601193
INDEX 01 22:48:57
TRACK 08 AUDIO
TITLE "Atonement"
PERFORMER "Immolation"
REM COMPOSER ""
ISRC DED831601194
INDEX 01 26:50:11
TRACK 09 AUDIO
TITLE "Above All"
PERFORMER "Immolation"
REM COMPOSER ""
ISRC DED831601195
INDEX 01 31:22:44
TRACK 10 AUDIO
TITLE "The Power Of Gods"
PERFORMER "Immolation"
REM COMPOSER ""
ISRC DED831601196
INDEX 01 36:17:49
TRACK 11 AUDIO
TITLE "Epiphany"
PERFORMER "Immolation"
REM COMPOSER ""
ISRC DED831601197
INDEX 01 40:16:33
TRACK 12 AUDIO
TITLE "Immolation (Bonus Track)"
PERFORMER "Immolation"
REM COMPOSER ""
ISRC DED831601461
INDEX 01 44:39:01
Download / Скачать

Хотите скачать бесплатно? Зарегистрируйтесь на сайте (ссылка на регистрацию). Pirat.ca - самый быстрый торрент трекер в рунете!

Как скачивать  ·   Что такое торрент  ·   Рейтинг и ограничения

Показать сообщения:    
Ответить на тему

Текущее время: Сегодня 02:42

Часовой пояс: GMT + 4



Вы не можете начинать темы
Вы не можете отвечать на сообщения
Вы не можете редактировать свои сообщения
Вы не можете удалять свои сообщения
Вы не можете голосовать в опросах
Вы не можете прикреплять файлы к сообщениям
Вы не можете скачивать файлы

▼ Вниз