Уважаемый Гость!
Вы можете поддержать проект и зарегистрироваться у наших партнеров - онлайн-стратегия MyLands. При регистрации в игре Вы получите код, который сможете активировать после регистрации на pirat.ca и получить 1000 дублонов.

Ваш код:
1b8effbb2d91248629d5897a85d0d1c4a4c433f0
 
     

(Death Metal) Obituary - Obituary (Limited Edition) - 2017 [FLAC, image+.cue, lossless]

Ответить на тему
 
Автор
Сообщение

Пост 02-Апр-2017 20:41

[Q] 

Дядя Вова

Гроза морей

-Obituary - Obituary (Limited Edition)-- Год издания: 2017
Страна: U.S.A.
Жанр: Death Metal
Продолжительность: 00:36:28-Лейбл издания: Relapse Records
Тип альбома: Master
Страна-выпуска диска: March 17, 2017 / Germany / First Press
Номер по каталогу: RR7370
Формат: FLAC
Битрейт аудио: lossless
Тип рипа: image+.cue
Наличие сканов в содержимом раздачи: да-
01. Brave 02:14
02. Sentence Day 02:49
03. A Lesson in Vengeance 03:07
04. End It Now 04:02
05. Kneel Before Me 03:04
06. It Lives 03:24
07. Betrayed 03:01
08. Turned to Stone 04:13
09. Straight to Hell 03:57
10. Ten Thousand Ways to Die 03:16
11. No Hope 03:21
Exact Audio Copy V1.0 beta 4 from 7. December 2014
EAC extraction logfile from 20. March 2017, 17:52
Obituary / Obituary
Used drive : HL-DT-STDVDRAM GU40N Adapter: 0 ID: 1
Read mode : Secure
Utilize accurate stream : Yes
Defeat audio cache : Yes
Make use of C2 pointers : No
Read offset correction : 103
Overread into Lead-In and Lead-Out : No
Fill up missing offset samples with silence : Yes
Delete leading and trailing silent blocks : No
Null samples used in CRC calculations : Yes
Used interface : Installed external ASPI interface
Used output format : User Defined Encoder
Selected bitrate : 1024 kBit/s
Quality : High
Add ID3 tag : No
Command line compressor : C:\Program Files (x86)\AudioConverter\AudioConverter.exe
Additional command line options : FLAC
TOC of the extracted CD
Track | Start | Length | Start sector | End sector
---------------------------------------------------------
1 | 0:00.00 | 2:14.72 | 0 | 10121
2 | 2:14.72 | 2:49.21 | 10122 | 22817
3 | 5:04.18 | 3:07.42 | 22818 | 36884
4 | 8:11.60 | 4:02.04 | 36885 | 55038
5 | 12:13.64 | 3:04.49 | 55039 | 68887
6 | 15:18.38 | 3:24.07 | 68888 | 84194
7 | 18:42.45 | 3:01.02 | 84195 | 97771
8 | 21:43.47 | 4:13.20 | 97772 | 116766
9 | 25:56.67 | 3:57.08 | 116767 | 134549
10 | 29:54.00 | 3:16.26 | 134550 | 149275
11 | 33:10.26 | 3:21.30 | 149276 | 164380
Range status and errors
Selected range
Filename C:\Users\workutagin\Desktop\Obituary - Obituary 2017\Obituary - Obituary.wav
Peak level 95.0 %
Extraction speed 1.9 X
Range quality 100.0 %
Test CRC F38787F4
Copy CRC F38787F4
Copy OK
No errors occurred
AccurateRip summary
Track 1 not present in database
Track 2 not present in database
Track 3 not present in database
Track 4 not present in database
Track 5 not present in database
Track 6 not present in database
Track 7 not present in database
Track 8 not present in database
Track 9 not present in database
Track 10 not present in database
Track 11 not present in database
None of the tracks are present in the AccurateRip database
End of status report
==== Log checksum 7D7F25D08362AC05542D5F281FDD567CF18285A16EF883ECBFAF03EB0A714AFE ====
REM GENRE "Death Metal"
REM DATE 2017
REM DISCID 8F088F0B
REM COMMENT "ExactAudioCopy v1.0b4"
PERFORMER "Obituary"
TITLE "Obituary"
FILE "Obituary - Obituary.flac" WAVE
TRACK 01 AUDIO
TITLE "Brave"
PERFORMER "Obituary"
INDEX 01 00:00:00
TRACK 02 AUDIO
TITLE "Sentence Day"
PERFORMER "Obituary"
INDEX 01 02:14:72
TRACK 03 AUDIO
TITLE "Lesson in Vengeance"
PERFORMER "Obituary"
INDEX 01 05:04:18
TRACK 04 AUDIO
TITLE "End It Now"
PERFORMER "Obituary"
INDEX 01 08:11:60
TRACK 05 AUDIO
TITLE "Kneel Before Me"
PERFORMER "Obituary"
INDEX 01 12:13:64
TRACK 06 AUDIO
TITLE "It Lives"
PERFORMER "Obituary"
INDEX 01 15:18:38
TRACK 07 AUDIO
TITLE "Betrayed"
PERFORMER "Obituary"
INDEX 01 18:42:45
TRACK 08 AUDIO
TITLE "Turned to Stone"
PERFORMER "Obituary"
INDEX 01 21:43:47
TRACK 09 AUDIO
TITLE "Straight to Hell"
PERFORMER "Obituary"
INDEX 01 25:56:67
TRACK 10 AUDIO
TITLE "Ten Thousand Ways to Die"
PERFORMER "Obituary"
INDEX 01 29:54:00
TRACK 11 AUDIO
TITLE "No Hope"
PERFORMER "Obituary"
INDEX 01 33:10:26
Download / Скачать

Хотите скачать бесплатно? Зарегистрируйтесь на сайте (ссылка на регистрацию). Pirat.ca - самый быстрый торрент трекер в рунете!

Как скачивать  ·   Что такое торрент  ·   Рейтинг и ограничения

Дядя Витя

59148

Пост 03-Апр-2017 18:11 (спустя 21 час)

[Q] 

За Obituary всегда плюс bs

_________________
?
[Профиль]  [ЛС] 
Показать сообщения:    
Ответить на тему

Текущее время: Сегодня 02:54

Часовой пояс: GMT + 4



Вы не можете начинать темы
Вы не можете отвечать на сообщения
Вы не можете редактировать свои сообщения
Вы не можете удалять свои сообщения
Вы не можете голосовать в опросах
Вы не можете прикреплять файлы к сообщениям
Вы не можете скачивать файлы

▼ Вниз