Уважаемый Гость!
Вы можете поддержать проект и зарегистрироваться у наших партнеров - онлайн-стратегия MyLands. При регистрации в игре Вы получите код, который сможете активировать после регистрации на pirat.ca и получить 1000 дублонов.

Ваш код:
1b8effbb2d91248629d5897a85d0d1c4a4c433f0
 
     

(Melodic Death/Viking Metal) Incordia - The Talon-Elder - 2017 [FLAC, image+.cue, lossless]

Ответить на тему
 
Автор
Сообщение

Пост 05-Апр-2017 01:52

[Q] 

Дядя Вова

Гроза морей

-Incordia - The Talon-Elder-- Год издания: 2017
Страна: Germany
Жанр: Melodic Death/Viking Metal
Продолжительность: 00:49:00-Лейбл издания: DarkTunes Music Group
Тип альбома: First Press
Страна-выпуска диска: March 24th, 2017, Germany, First Press
Номер по каталогу: DTP17LP003
Формат: FLAC
Битрейт аудио: lossless
Тип рипа: image+.cue
Наличие сканов в содержимом раздачи: да-
01. The Talon-Elder
02. Abandoned
03. Call of the North
04. Corona Borealis
05. Hymn of the Asagods
06. Mists of Relinquished (Bifrost's Decay, Pt. 1)
07. As the Leaves Fall
08. Ahnenfall (Bifrost's Decay, Pt. 2)
09. Wanderer's Poem
10. Into the Light
Exact Audio Copy V1.1 from 23. June 2015
EAC extraction logfile from 3. April 2017, 12:27
Incordia / The Talon-Elder
Used drive : HP DVD Writer 1170d Adapter: 1 ID: 1
Read mode : Secure
Utilize accurate stream : Yes
Defeat audio cache : Yes
Make use of C2 pointers : No
Read offset correction : 6
Overread into Lead-In and Lead-Out : No
Fill up missing offset samples with silence : Yes
Delete leading and trailing silent blocks : No
Null samples used in CRC calculations : Yes
Used interface : Native Win32 interface for Win NT & 2000
Used output format : User Defined Encoder
Selected bitrate : 1024 kBit/s
Quality : High
Add ID3 tag : No
Command line compressor : C:\Program Files (x86)\Exact Audio Copy\Flac\flac.exe
Additional command line options : -V -8 -T "Date=%year%" -T "Genre=%genre%" %source%
TOC of the extracted CD
Track | Start | Length | Start sector | End sector
---------------------------------------------------------
1 | 0:00.00 | 4:26.50 | 0 | 19999
2 | 4:26.50 | 4:24.68 | 20000 | 39867
3 | 8:51.43 | 3:49.13 | 39868 | 57055
4 | 12:40.56 | 3:56.72 | 57056 | 74827
5 | 16:37.53 | 6:29.66 | 74828 | 104068
6 | 23:07.44 | 5:14.25 | 104069 | 127643
7 | 28:21.69 | 4:26.11 | 127644 | 147604
8 | 32:48.05 | 5:28.26 | 147605 | 172230
9 | 38:16.31 | 6:10.42 | 172231 | 200022
10 | 44:26.73 | 4:33.35 | 200023 | 220532
Range status and errors
Selected range
Filename C:\EAC\Ungern666\Incordia - The Talon-Elder.wav
Peak level 99.5 %
Extraction speed 5.5 X
Range quality 100.0 %
Test CRC C8DFE590
Copy CRC C8DFE590
Copy OK
No errors occurred
AccurateRip summary
Track 1 not present in database
Track 2 not present in database
Track 3 not present in database
Track 4 not present in database
Track 5 not present in database
Track 6 not present in database
Track 7 not present in database
Track 8 not present in database
Track 9 not present in database
Track 10 not present in database
None of the tracks are present in the AccurateRip database
End of status report
---- CUETools DB Plugin V2.1.6
[CTDB TOCID: FXr6EVc.8xS6FRPu4VNjV1ht9t8-] disk not present in database
Submit result: FXr6EVc.8xS6FRPu4VNjV1ht9t8- has been uploaded
==== Log checksum 6DA5724FB8FF3C5A1C363A96F6F66D5E5746FE76D912F724299B44F124C4D50F ====
REM GENRE "Melodic Death/Viking Metal"
REM DATE 2017
REM DISCID A30B7C0A
REM COMMENT "ExactAudioCopy v1.1"
PERFORMER "Incordia"
TITLE "The Talon-Elder"
FILE "Incordia - The Talon-Elder.flac" WAVE
TRACK 01 AUDIO
TITLE "The Talon-Elder"
PERFORMER "Incordia"
INDEX 01 00:00:00
TRACK 02 AUDIO
TITLE "Abandoned"
PERFORMER "Incordia"
INDEX 00 04:24:50
INDEX 01 04:26:50
TRACK 03 AUDIO
TITLE "Call of the North"
PERFORMER "Incordia"
INDEX 00 08:49:43
INDEX 01 08:51:43
TRACK 04 AUDIO
TITLE "Corona Borealis"
PERFORMER "Incordia"
INDEX 00 12:38:56
INDEX 01 12:40:56
TRACK 05 AUDIO
TITLE "Hymn of the Asagods"
PERFORMER "Incordia"
INDEX 00 16:35:53
INDEX 01 16:37:53
TRACK 06 AUDIO
TITLE "Mists of Relinquished (Bifröst's Decay, Pt. 1)"
PERFORMER "Incordia"
INDEX 00 23:05:44
INDEX 01 23:07:44
TRACK 07 AUDIO
TITLE "As The Leaves Fall"
PERFORMER "Incordia"
INDEX 00 28:19:69
INDEX 01 28:21:69
TRACK 08 AUDIO
TITLE "Ahnenfall (Bifröst's Decay, Pt. 2)"
PERFORMER "Incordia"
INDEX 00 32:46:05
INDEX 01 32:48:05
TRACK 09 AUDIO
TITLE "Wanderer's Poem"
PERFORMER "Incordia"
INDEX 00 38:14:31
INDEX 01 38:16:31
TRACK 10 AUDIO
TITLE "Into the Light"
PERFORMER "Incordia"
INDEX 00 44:24:73
INDEX 01 44:26:73
Download / Скачать

Хотите скачать бесплатно? Зарегистрируйтесь на сайте (ссылка на регистрацию). Pirat.ca - самый быстрый торрент трекер в рунете!

Как скачивать  ·   Что такое торрент  ·   Рейтинг и ограничения

Показать сообщения:    
Ответить на тему

Текущее время: Сегодня 03:08

Часовой пояс: GMT + 4



Вы не можете начинать темы
Вы не можете отвечать на сообщения
Вы не можете редактировать свои сообщения
Вы не можете удалять свои сообщения
Вы не можете голосовать в опросах
Вы не можете прикреплять файлы к сообщениям
Вы не можете скачивать файлы

▼ Вниз