Уважаемый Гость!
Вы можете поддержать проект и зарегистрироваться у наших партнеров - онлайн-стратегия MyLands. При регистрации в игре Вы получите код, который сможете активировать после регистрации на pirat.ca и получить 1000 дублонов.

Ваш код:
bf76b4fde44c7189cfb4d32d5b204facc1d6d492
 
     

(Melodic Death Metal) Nightrage - The Venomous - (Japanese Edition) - 2017 [FLAC, image+.cue, lossless]

Ответить на тему
 
Автор
Сообщение

Пост 08-Апр-2017 01:08

[Q] 

Дядя Вова

Гроза морей

-Nightrage - The Venomous - (Japanese Edition)-- Год издания: 2017
Страна: Macedonia (early, later), Sweden (mid, current)
Жанр: Melodic Death Metal
Продолжительность: 00:52:43-Лейбл издания: Avalon
Тип альбома: Master
Страна-выпуска диска: 2017, Japan
Номер по каталогу: MICP-11342
Формат: FLAC
Битрейт аудио: lossless
Тип рипа: image+.cue
Наличие сканов в содержимом раздачи: да-
01. The Venomous
02. Metamorphosis/Day of Wrath
03. In Abhorrence
04. Affliction
05. Catharsis
06. Bemoan
07. The Blood
08. From Ashes into Stone
09. Trail of Ghosts
10. Disturbia
11. Desolation and Dismay
12. Denial of the Soul (instrumental)
13. Denial of the Soul (Alternative Version) (Bonus Track)
Exact Audio Copy V1.3 from 2. September 2016
EAC extraction logfile from 27. March 2017, 12:00
Nightrage / The Venomous (Japan)
Used drive : MATSHITADVD-RAM UJ8G6 Adapter: 1 ID: 0
Read mode : Secure
Utilize accurate stream : Yes
Defeat audio cache : Yes
Make use of C2 pointers : No
Read offset correction : 103
Overread into Lead-In and Lead-Out : No
Fill up missing offset samples with silence : Yes
Delete leading and trailing silent blocks : No
Null samples used in CRC calculations : Yes
Used interface : Native Win32 interface for Win NT & 2000
Used output format : User Defined Encoder
Selected bitrate : 1024 kBit/s
Quality : High
Add ID3 tag : No
Command line compressor : C:\Program Files (x86)\Exact Audio Copy\FLAC\FLAC.EXE
Additional command line options : -V -8 -T "Date=%year%" -T"Genre=%genre%" -T"COMMENT=Ripped by Ilijan - ilko" -8 -V %source%
TOC of the extracted CD
Track | Start | Length | Start sector | End sector
---------------------------------------------------------
1 | 0:00.00 | 4:31.00 | 0 | 20324
2 | 4:31.00 | 3:51.37 | 20325 | 37686
3 | 8:22.37 | 3:37.00 | 37687 | 53961
4 | 11:59.37 | 4:27.00 | 53962 | 73986
5 | 16:26.37 | 4:55.00 | 73987 | 96111
6 | 21:21.37 | 4:07.00 | 96112 | 114636
7 | 25:28.37 | 4:12.00 | 114637 | 133536
8 | 29:40.37 | 3:41.00 | 133537 | 150111
9 | 33:21.37 | 4:50.00 | 150112 | 171861
10 | 38:11.37 | 4:25.00 | 171862 | 191736
11 | 42:36.37 | 4:03.00 | 191737 | 209961
12 | 46:39.37 | 3:02.38 | 209962 | 223649
13 | 49:42.00 | 3:00.38 | 223650 | 237187
Range status and errors
Selected range
Filename D:\ilko\Nightrage - The Venomous (Japan).wav
Peak level 96.6 %
Extraction speed 4.0 X
Range quality 100.0 %
Test CRC 0422C044
Copy CRC 0422C044
Copy OK
No errors occurred
AccurateRip summary
Track 1 not present in database
Track 2 not present in database
Track 3 not present in database
Track 4 not present in database
Track 5 not present in database
Track 6 not present in database
Track 7 not present in database
Track 8 not present in database
Track 9 not present in database
Track 10 not present in database
Track 11 not present in database
Track 12 not present in database
Track 13 not present in database
None of the tracks are present in the AccurateRip database
End of status report
---- CUETools DB Plugin V2.1.6
[CTDB TOCID: nOIYmvnLbRSmB_gckh1LCDhclMg-] found
Submit result: nOIYmvnLbRSmB_gckh1LCDhclMg- has been confirmed
Track | CTDB Status
1 | (2/2) Accurately ripped
2 | (2/2) Accurately ripped
3 | (2/2) Accurately ripped
4 | (2/2) Accurately ripped
5 | (2/2) Accurately ripped
6 | (2/2) Accurately ripped
7 | (2/2) Accurately ripped
8 | (2/2) Accurately ripped
9 | (2/2) Accurately ripped
10 | (2/2) Accurately ripped
11 | (2/2) Accurately ripped
12 | (2/2) Accurately ripped
13 | (2/2) Accurately ripped
==== Log checksum 315D35B5F6A491E8B9A431A1FDB06DFB73B466069B65DAC0080D5770B48D34B7 ====
REM GENRE "Melodic Death Metal"
REM DATE 2017
REM DISCID AE0C5A0D
REM COMMENT "ExactAudioCopy v1.3"
PERFORMER "Nightrage"
TITLE "The Venomous"
FILE "Nightrage - The Venomous.flac" WAVE
TRACK 01 AUDIO
TITLE "The Venomous"
PERFORMER "Nightrage"
INDEX 01 00:00:00
TRACK 02 AUDIO
TITLE "Metamorphosis/Day of Wrath"
PERFORMER "Nightrage"
INDEX 01 04:31:00
TRACK 03 AUDIO
TITLE "In Abhorrence"
PERFORMER "Nightrage"
INDEX 01 08:22:37
TRACK 04 AUDIO
TITLE "Affliction"
PERFORMER "Nightrage"
INDEX 01 11:59:37
TRACK 05 AUDIO
TITLE "Catharsis"
PERFORMER "Nightrage"
INDEX 01 16:26:37
TRACK 06 AUDIO
TITLE "Bemoan"
PERFORMER "Nightrage"
INDEX 01 21:21:37
TRACK 07 AUDIO
TITLE "The Blood"
PERFORMER "Nightrage"
INDEX 01 25:28:37
TRACK 08 AUDIO
TITLE "From Ashes into Stone"
PERFORMER "Nightrage"
INDEX 01 29:40:37
TRACK 09 AUDIO
TITLE "Trail of Ghosts"
PERFORMER "Nightrage"
INDEX 01 33:21:37
TRACK 10 AUDIO
TITLE "Disturbia"
PERFORMER "Nightrage"
INDEX 01 38:11:37
TRACK 11 AUDIO
TITLE "Desolation and Dismay"
PERFORMER "Nightrage"
INDEX 01 42:36:37
TRACK 12 AUDIO
TITLE "Denial of the Soul (instrumental)"
PERFORMER "Nightrage"
INDEX 01 46:39:37
TRACK 13 AUDIO
TITLE "Denial of the Soul (Alternative Version) (Bonus Track)"
PERFORMER "Nightrage"
INDEX 00 49:40:00
INDEX 01 49:42:00
Download / Скачать

Хотите скачать бесплатно? Зарегистрируйтесь на сайте (ссылка на регистрацию). Pirat.ca - самый быстрый торрент трекер в рунете!

Как скачивать  ·   Что такое торрент  ·   Рейтинг и ограничения

Показать сообщения:    
Ответить на тему

Текущее время: Сегодня 12:31

Часовой пояс: GMT + 4



Вы не можете начинать темы
Вы не можете отвечать на сообщения
Вы не можете редактировать свои сообщения
Вы не можете удалять свои сообщения
Вы не можете голосовать в опросах
Вы не можете прикреплять файлы к сообщениям
Вы не можете скачивать файлы

▼ Вниз