Уважаемый Гость!
Вы можете поддержать проект и зарегистрироваться у наших партнеров - онлайн-стратегия MyLands. При регистрации в игре Вы получите код, который сможете активировать после регистрации на pirat.ca и получить 1000 дублонов.

Ваш код:
1b8effbb2d91248629d5897a85d0d1c4a4c433f0
 
     

(Thrash Metal) Havok - Conformicide - 2017 [FLAC, image+.cue, lossless]

Ответить на тему
 
Автор
Сообщение

Пост 08-Апр-2017 14:56

[Q] 

Дядя Вова

Гроза морей

-Havok - Conformicide-- Год издания: 2017
Страна: Denver, Colorado, USA
Жанр: Thrash Metal
Продолжительность: 01:02:33-Лейбл издания: Century Media Records
Тип альбома: Master
Страна-выпуска диска: 10 Mar 2017 Europe
Номер по каталогу: [88985389722]
Формат: FLAC
Битрейт аудио: lossless
Тип рипа: image+.cue
Наличие сканов в содержимом раздачи: да-
01. F.P.C.
02. Hang 'Em High
03. Dogmaniacal
04. Intention to Deceive
05. Ingsoc
06. Masterplan
07. Peace Is in Pieces
08. Claiming Certainty
09. Wake Up
10. Circling the Drain
11. String Break (Bonus Track)
12. Slaughtered (Pantera Cover) (Bonus Track)
Exact Audio Copy V1.3 from 2. September 2016
EAC extraction logfile from 8. April 2017, 1:16
Havok / Conformicide
Used drive : ATAPI iHAS122 W Adapter: 2 ID: 0
Read mode : Secure
Utilize accurate stream : Yes
Defeat audio cache : Yes
Make use of C2 pointers : No
Read offset correction : 48
Overread into Lead-In and Lead-Out : No
Fill up missing offset samples with silence : Yes
Delete leading and trailing silent blocks : No
Null samples used in CRC calculations : Yes
Used interface : Installed external ASPI interface
Used output format : User Defined Encoder
Selected bitrate : 1024 kBit/s
Quality : High
Add ID3 tag : No
Command line compressor : C:\Program Files\FLAC\flac.exe
Additional command line options : -V -8 -T "Date=%year%" -T "Genre=%genre%" -T"COMMENT=Ripped by Ilijan - ilko" -8 -V %source%
TOC of the extracted CD
Track | Start | Length | Start sector | End sector
---------------------------------------------------------
1 | 0:00.00 | 5:20.37 | 0 | 24036
2 | 5:20.37 | 4:49.39 | 24037 | 45750
3 | 10:10.01 | 5:55.30 | 45751 | 72405
4 | 16:05.31 | 5:42.47 | 72406 | 98102
5 | 21:48.03 | 7:41.21 | 98103 | 132698
6 | 29:29.24 | 6:25.26 | 132699 | 161599
7 | 35:54.50 | 5:17.25 | 161600 | 185399
8 | 41:12.00 | 3:42.47 | 185400 | 202096
9 | 44:54.47 | 5:41.11 | 202097 | 227682
10 | 50:35.58 | 7:17.30 | 227683 | 260487
11 | 57:53.13 | 0:43.58 | 260488 | 263770
12 | 58:36.71 | 3:56.11 | 263771 | 281481
Range status and errors
Selected range
Filename D:\ilko\Havok - Conformicide.wav
Peak level 100.0 %
Extraction speed 4.3 X
Range quality 100.0 %
Test CRC 3F8DF8D9
Copy CRC 3F8DF8D9
Copy OK
No errors occurred
AccurateRip summary
Track 1 accurately ripped (confidence 1) [207C5BF1] (AR v2)
Track 2 accurately ripped (confidence 1) [49618D0D] (AR v2)
Track 3 accurately ripped (confidence 1) [3D32C234] (AR v2)
Track 4 accurately ripped (confidence 1) [CFDF661C] (AR v2)
Track 5 accurately ripped (confidence 1) [EF0DC99E] (AR v2)
Track 6 accurately ripped (confidence 1) [1E1FC4E4] (AR v2)
Track 7 accurately ripped (confidence 1) [158227FF] (AR v2)
Track 8 accurately ripped (confidence 1) [D022F4C7] (AR v2)
Track 9 accurately ripped (confidence 1) [D11B9E8D] (AR v2)
Track 10 accurately ripped (confidence 1) [0D1A6AA3] (AR v2)
Track 11 accurately ripped (confidence 1) [DD398C41] (AR v2)
Track 12 accurately ripped (confidence 1) [8860D663] (AR v2)
All tracks accurately ripped
End of status report
---- CUETools DB Plugin V2.1.6
[CTDB TOCID: oYZbjcTP2MQrAMBfrTDTVAT7cAE-] found
Submit result: oYZbjcTP2MQrAMBfrTDTVAT7cAE- has been confirmed
Track | CTDB Status
1 | (35/35) Accurately ripped
2 | (35/35) Accurately ripped
3 | (35/35) Accurately ripped
4 | (35/35) Accurately ripped
5 | (35/35) Accurately ripped
6 | (35/35) Accurately ripped
7 | (35/35) Accurately ripped
8 | (35/35) Accurately ripped
9 | (35/35) Accurately ripped
10 | (35/35) Accurately ripped
11 | (35/35) Accurately ripped
12 | (35/35) Accurately ripped
==== Log checksum ACCDDF33860E2EA621716566E130BB545A46420D06C1EA522E34E19795FA6901 ====
REM GENRE "Thrash Metal"
REM DATE 2017
REM DISCID A40EA90C
REM COMMENT "ExactAudioCopy v1.3"
PERFORMER "Havok"
TITLE "Conformicide"
FILE "Havok - Conformicide.flac" WAVE
TRACK 01 AUDIO
TITLE "F.P.C."
PERFORMER "Havok"
INDEX 01 00:00:00
TRACK 02 AUDIO
TITLE "Hang 'em High"
PERFORMER "Havok"
INDEX 01 05:20:37
TRACK 03 AUDIO
TITLE "Dogmaniacal"
PERFORMER "Havok"
INDEX 01 10:10:01
TRACK 04 AUDIO
TITLE "Intention to Deceive"
PERFORMER "Havok"
INDEX 01 16:05:31
TRACK 05 AUDIO
TITLE "Ingsoc"
PERFORMER "Havok"
INDEX 01 21:48:03
TRACK 06 AUDIO
TITLE "Masterplan"
PERFORMER "Havok"
INDEX 01 29:29:24
TRACK 07 AUDIO
TITLE "Peace Is in Pieces"
PERFORMER "Havok"
INDEX 01 35:54:50
TRACK 08 AUDIO
TITLE "Claiming Certainty"
PERFORMER "Havok"
INDEX 01 41:12:00
TRACK 09 AUDIO
TITLE "Wake Up"
PERFORMER "Havok"
INDEX 01 44:54:47
TRACK 10 AUDIO
TITLE "Circling the Drain"
PERFORMER "Havok"
INDEX 01 50:35:58
TRACK 11 AUDIO
TITLE "String Break (Bonus Track)"
PERFORMER "Havok"
INDEX 01 57:53:13
TRACK 12 AUDIO
TITLE "Slaughtered (Pantera Cover) (Bonus Track)"
PERFORMER "Havok"
INDEX 01 58:36:71
Download / Скачать

Хотите скачать бесплатно? Зарегистрируйтесь на сайте (ссылка на регистрацию). Pirat.ca - самый быстрый торрент трекер в рунете!

Как скачивать  ·   Что такое торрент  ·   Рейтинг и ограничения

Показать сообщения:    
Ответить на тему

Текущее время: Сегодня 02:56

Часовой пояс: GMT + 4



Вы не можете начинать темы
Вы не можете отвечать на сообщения
Вы не можете редактировать свои сообщения
Вы не можете удалять свои сообщения
Вы не можете голосовать в опросах
Вы не можете прикреплять файлы к сообщениям
Вы не можете скачивать файлы

▼ Вниз