Уважаемый Гость!
Вы можете поддержать проект и зарегистрироваться у наших партнеров - онлайн-стратегия MyLands. При регистрации в игре Вы получите код, который сможете активировать после регистрации на pirat.ca и получить 1000 дублонов.

Ваш код:
bf76b4fde44c7189cfb4d32d5b204facc1d6d492
 
     

(Neoclassical Metal, Shred) Kelly Simonz's Blind Faith - Overture Of Destruction-(Japanese Edition) - 2017 [FLAC, image+.cue, lossless]

Ответить на тему
 
Автор
Сообщение

Пост 19-Апр-2017 20:54

[Q] 

Дядя Вова

Гроза морей

-Kelly Simonz's Blind Faith - Overture Of Destruction-(Japanese Edition)-- Год издания: 2017
Страна: Japan, Osaka
Жанр: Neoclassical Metal, Shred
Продолжительность: 01:02:11-Лейбл издания: King Record Co., Ltd.
Тип альбома: Master
Страна-выпуска диска: April 5th, 2017 Japan
Номер по каталогу: [KICS-3457]
Формат: FLAC
Битрейт аудио: lossless
Тип рипа: image+.cue
Наличие сканов в содержимом раздачи: да-
01. Overture
02. Road to Destruction
03. Close Your Eyes
04. Road to Ruin
05. Sea of Tears
06. Regeneration
07. Majestic Prestigio
08. All I Need Is Your Love
09. Opus #3
10. You're My Love
11. "The Wrath of Gaia" Suite No.1-3
12. You're My Love (Japanese Version)
Exact Audio Copy V1.3 from 2. September 2016
EAC extraction logfile from 18. April 2017, 16:57
Kelly Simonz's Blind Faith / Overture Of Destruction
Used drive : ATAPI iHAS122 W Adapter: 2 ID: 0
Read mode : Secure
Utilize accurate stream : Yes
Defeat audio cache : Yes
Make use of C2 pointers : No
Read offset correction : 48
Overread into Lead-In and Lead-Out : No
Fill up missing offset samples with silence : Yes
Delete leading and trailing silent blocks : No
Null samples used in CRC calculations : Yes
Used interface : Installed external ASPI interface
Used output format : User Defined Encoder
Selected bitrate : 1024 kBit/s
Quality : High
Add ID3 tag : No
Command line compressor : C:\Program Files\FLAC\flac.exe
Additional command line options : -V -8 -T "Date=%year%" -T "Genre=%genre%" -T"COMMENT=Ripped by Ilijan - ilko" -8 -V %source%
TOC of the extracted CD
Track | Start | Length | Start sector | End sector
---------------------------------------------------------
1 | 0:00.00 | 0:55.70 | 0 | 4194
2 | 0:55.70 | 6:45.31 | 4195 | 34600
3 | 7:41.26 | 4:50.28 | 34601 | 56378
4 | 12:31.54 | 5:43.25 | 56379 | 82128
5 | 18:15.04 | 4:33.00 | 82129 | 102603
6 | 22:48.04 | 3:43.54 | 102604 | 119382
7 | 26:31.58 | 5:36.23 | 119383 | 144605
8 | 32:08.06 | 5:18.15 | 144606 | 168470
9 | 37:26.21 | 4:28.31 | 168471 | 188601
10 | 41:54.52 | 5:07.66 | 188602 | 211692
11 | 47:02.43 | 10:00.35 | 211693 | 256727
12 | 57:03.03 | 5:08.49 | 256728 | 279876
Range status and errors
Selected range
Filename D:\ilko\Kelly Simonz's Blind Faith - Overture Of Destruction.wav
Peak level 100.0 %
Extraction speed 4.1 X
Range quality 99.9 %
Test CRC D06C8644
Copy CRC D06C8644
Copy OK
No errors occurred
AccurateRip summary
Track 1 not present in database
Track 2 not present in database
Track 3 not present in database
Track 4 not present in database
Track 5 not present in database
Track 6 not present in database
Track 7 not present in database
Track 8 not present in database
Track 9 not present in database
Track 10 not present in database
Track 11 not present in database
Track 12 not present in database
None of the tracks are present in the AccurateRip database
End of status report
---- CUETools DB Plugin V2.1.6
[CTDB TOCID: 5jX_dTJFdqcCk.3w7k.wanfw6qw-] found
Submit result: 5jX_dTJFdqcCk.3w7k.wanfw6qw- has been confirmed
Track | CTDB Status
1 | (1/1) Accurately ripped
2 | (1/1) Accurately ripped
3 | (1/1) Accurately ripped
4 | (1/1) Accurately ripped
5 | (1/1) Accurately ripped
6 | (1/1) Accurately ripped
7 | (1/1) Accurately ripped
8 | (1/1) Accurately ripped
9 | (1/1) Accurately ripped
10 | (1/1) Accurately ripped
11 | (1/1) Accurately ripped
12 | (1/1) Accurately ripped
==== Log checksum 5EE55063FA66F2B61384FA2D61E5D0FC71690982D78ACF1AE892E0F82B2D56CE ====
REM GENRE "Neoclassical Power Metal"
REM DATE 2017
REM DISCID A10E930C
REM COMMENT "ExactAudioCopy v1.3"
PERFORMER "Kelly Simonz's Blind Faith"
TITLE "Overture Of Destruction"
FILE "Kelly Simonz's Blind Faith - Overture Of Destruction.flac" WAVE
TRACK 01 AUDIO
TITLE "Overture"
PERFORMER "Kelly Simonz's Blind Faith"
INDEX 01 00:00:00
TRACK 02 AUDIO
TITLE "Road To Destruction"
PERFORMER "Kelly Simonz's Blind Faith"
INDEX 01 00:55:70
TRACK 03 AUDIO
TITLE "Close Your Eyes"
PERFORMER "Kelly Simonz's Blind Faith"
INDEX 01 07:41:26
TRACK 04 AUDIO
TITLE "Road To Ruin"
PERFORMER "Kelly Simonz's Blind Faith"
INDEX 01 12:31:54
TRACK 05 AUDIO
TITLE "Sea Of Tears"
PERFORMER "Kelly Simonz's Blind Faith"
INDEX 01 18:15:04
TRACK 06 AUDIO
TITLE "Regeneration"
PERFORMER "Kelly Simonz's Blind Faith"
INDEX 01 22:48:04
TRACK 07 AUDIO
TITLE "Majestic Prestigio"
PERFORMER "Kelly Simonz's Blind Faith"
INDEX 01 26:31:58
TRACK 08 AUDIO
TITLE "All I Need Is Your Love"
PERFORMER "Kelly Simonz's Blind Faith"
INDEX 01 32:08:06
TRACK 09 AUDIO
TITLE "Opus No. 3"
PERFORMER "Kelly Simonz's Blind Faith"
INDEX 01 37:26:21
TRACK 10 AUDIO
TITLE "You're My Love"
PERFORMER "Kelly Simonz's Blind Faith"
INDEX 01 41:54:52
TRACK 11 AUDIO
TITLE "The Wrath Of Gaia - Suite No. 1-3"
PERFORMER "Kelly Simonz's Blind Faith"
INDEX 01 47:02:43
TRACK 12 AUDIO
TITLE "You're My Love (Japanese Version)"
PERFORMER "Kelly Simonz's Blind Faith"
INDEX 01 57:03:03
Download / Скачать

Хотите скачать бесплатно? Зарегистрируйтесь на сайте (ссылка на регистрацию). Pirat.ca - самый быстрый торрент трекер в рунете!

Как скачивать  ·   Что такое торрент  ·   Рейтинг и ограничения

Показать сообщения:    
Ответить на тему

Текущее время: Сегодня 12:31

Часовой пояс: GMT + 4



Вы не можете начинать темы
Вы не можете отвечать на сообщения
Вы не можете редактировать свои сообщения
Вы не можете удалять свои сообщения
Вы не можете голосовать в опросах
Вы не можете прикреплять файлы к сообщениям
Вы не можете скачивать файлы

▼ Вниз