Уважаемый Гость!
Вы можете поддержать проект и зарегистрироваться у наших партнеров - онлайн-стратегия MyLands. При регистрации в игре Вы получите код, который сможете активировать после регистрации на pirat.ca и получить 1000 дублонов.

Ваш код:
bf76b4fde44c7189cfb4d32d5b204facc1d6d492
 
     

(Industrial) Rammstein - Mein Land (2011) FLAC (image+.cue) Lossless

Ответить на тему
 
Автор
Сообщение

Пост 13-Ноя-2011 04:40

[Q] 

Kote Makaradze

Rammstein - Mein Land (2011)- -Год: 2011
Жанр: Industrial
Продолжительность: 00:16:40
Страна: Germany
Кодек: FLAC (image+.cue)
Битрейт: Lossless


01. Mein Land [0:03:53.33]
02. Vergiss Uns Nicht [0:04:09.51]
03. My Country (The BossHoss) [0:04:08.25]
04. Mein Land (Mogwai Mix) [0:04:30.34]
-

-

Exact Audio Copy V0.99 prebeta 5 from 4. May 2009
EAC extraction logfile from 12. November 2011, 18:58
Rammstein / Mein Land
Used drive : SlimtypeBD E DS4E1S Adapter: 0 ID: 1
Read mode : Secure
Utilize accurate stream : Yes
Defeat audio cache : Yes
Make use of C2 pointers : No
Read offset correction : 6
Overread into Lead-In and Lead-Out : No
Fill up missing offset samples with silence : Yes
Delete leading and trailing silent blocks : No
Null samples used in CRC calculations : Yes
Used interface : Native Win32 interface for Win NT & 2000
Used output format : User Defined Encoder
Selected bitrate : 768 kBit/s
Quality : High
Add ID3 tag : No
Command line compressor : C:\Program Files (x86)\Exact Audio Copy\Flac\flac.exe
Additional command line options : -8 -V -T "ARTIST=%a" -T "TITLE=%t" -T "ALBUM=%g" -T "DATE=%y" -T "TRACKNUMBER=%n" -T "GENRE=%m" -T "COMMENT=EAC FLAC -8" %s
TOC of the extracted CD
Track | Start | Length | Start sector | End sector
---------------------------------------------------------
1 | 0:00.00 | 3:53.33 | 0 | 17507
2 | 3:53.33 | 4:09.51 | 17508 | 36233
3 | 8:03.09 | 4:08.25 | 36234 | 54858
4 | 12:11.34 | 4:30.34 | 54859 | 75142
Range status and errors
Selected range
Filename F:\Rammstein - Mein Land [2011]\Rammstein - Mein Land.wav
Peak level 99.9 %
Range quality 100.0 %
Test CRC 93F56461
Copy CRC 93F56461
Copy OK
No errors occurred
AccurateRip summary
Track 1 not present in database
Track 2 not present in database
Track 3 not present in database
Track 4 not present in database
None of the tracks are present in the AccurateRip database
End of status report
[/code][/hide][hide=Отчёт auCDtect Task manager:][code]
-----------------------
DON'T MODIFY THIS FILE
-----------------------
PERFORMER: auCDtect Task Manager, ver. 1.5.1RC2 build 1.5.1.3
Copyright (c) 2008-2010 y-soft. All rights reserved
ANALYZER: auCDtect: CD records authenticity detector, version 0.8.2
Copyright (c) 2004 Oleg Berngardt. All rights reserved.
Copyright (c) 2004 Alexander Djourik. All rights reserved.
FILE: Rammstein - Mein Land.flac
Size: 120241596 Hash: 7E69D9069A86A302EA02900D1EBD3E90 Accuracy: -m0
Conclusion: CDDA 100%
Signature: 6C4CF8E26E293282A015A366AE3231A51385AB5A
- -
Download / Скачать

Хотите скачать бесплатно? Зарегистрируйтесь на сайте (ссылка на регистрацию). Pirat.ca - самый быстрый торрент трекер в рунете!

Как скачивать  ·   Что такое торрент  ·   Рейтинг и ограничения

kriska

Лоцман

Пост 17-Ноя-2011 21:42 (спустя 4 дня)

[Q] 

Огромное спасибо, Автору респект и уважуха
[Профиль]  [ЛС] 

Till Lindemann

Лоцман

Пост 19-Ноя-2011 08:38 (спустя 1 день 10 часов)

[Q] 

Спасибо!!!! Rammstein рулит...
[Профиль]  [ЛС] 

YBbI de FiiS

Корсар

Пост 01-Фев-2013 17:22 (спустя 1 год 2 месяца)

[Q] 

Благодарю
[Профиль]  [ЛС] 

Dzhonson

Штурман

Пост 01-Июн-2013 19:38 (спустя 4 месяца)

[Q] 

Раммштайн,никогда не надоест... ar
[Профиль]  [ЛС] 
Показать сообщения:    
Ответить на тему

Текущее время: Сегодня 12:38

Часовой пояс: GMT + 4



Вы не можете начинать темы
Вы не можете отвечать на сообщения
Вы не можете редактировать свои сообщения
Вы не можете удалять свои сообщения
Вы не можете голосовать в опросах
Вы не можете прикреплять файлы к сообщениям
Вы не можете скачивать файлы

▼ Вниз