Уважаемый Гость!
Вы можете поддержать проект и зарегистрироваться у наших партнеров - онлайн-стратегия MyLands. При регистрации в игре Вы получите код, который сможете активировать после регистрации на pirat.ca и получить 1000 дублонов.

Ваш код:
b35b3ec45a7bd3f86315766471edc285be832af4
 
     

(Progressive Metal) Eumeria - Rebel Mind - 2011, FLAC, (image+cue), lossless

Ответить на тему
 
Автор
Сообщение

Пост 25-Ноя-2011 17:27

[Q] 

sergej644

-Eumeria - Rebel Mind- -Дебютный альбом американской группы «Eumeria»
Релиз: 17 июня 2011 года. феноменальная музыкальность и вокал может поставить Eumeria в классе Symphony X, Maximus и Dream Theater
-Производство: USA
Жанр: Progressive Metal
Год выпуска: 2011
Формат: FLAC
Тип рипа: Image+cue
Битрейт аудио: lossless
Продолжительность: 00:45:13
- -01.Legion (5:15)
02.Delusions (4:17)
03.Rebel mind (7:05)
04.Father (5:35)
05.Tides (6:05)
06.The key (5:07)
07.Red light flies (2:37)
08.Dreaming of death (4:39)
09.Secret places (4:30)
- -
Exact Audio Copy V0.99 prebeta 5 from 4. May 2009
EAC extraction logfile from 20. July 2011, 18:56
Eumeria / Rebel Mind Promo
Used drive : _NEC DVD_RW ND-3540A Adapter: 0 ID: 0
Read mode : Secure
Utilize accurate stream : Yes
Defeat audio cache : Yes
Make use of C2 pointers : No
Read offset correction : 48
Overread into Lead-In and Lead-Out : No
Fill up missing offset samples with silence : Yes
Delete leading and trailing silent blocks : No
Null samples used in CRC calculations : Yes
Used interface : Native Win32 interface for Win NT & 2000
Used output format : User Defined Encoder
Selected bitrate : 40 kBit/s
Quality : High
Add ID3 tag : No
Command line compressor : C:\Program Files\Exact Audio Copy\FLAC.EXE
Additional command line options : -6 -V %s
TOC of the extracted CD
Track | Start | Length | Start sector | End sector
---------------------------------------------------------
1 | 0:00.00 | 5:15.51 | 0 | 23675
2 | 5:15.51 | 4:17.42 | 23676 | 42992
3 | 9:33.18 | 7:05.07 | 42993 | 74874
4 | 16:38.25 | 5:35.06 | 74875 | 100005
5 | 22:13.31 | 6:05.29 | 100006 | 127409
6 | 28:18.60 | 5:07.16 | 127410 | 150450
7 | 33:26.01 | 2:37.40 | 150451 | 162265
8 | 36:03.41 | 4:39.33 | 162266 | 183223
9 | 40:42.74 | 4:30.30 | 183224 | 203503
Range status and errors
Selected range
Filename E:\Eumeria - 2011 - Rebel Mind Promo {snecy.moole.ru}\Eumeria - Rebel Mind Promo.wav
Peak level 98.9 %
Range quality 100.0 %
Copy CRC EE1107EC
Copy OK
No errors occurred
AccurateRip summary
Track 1 not present in database
Track 2 not present in database
Track 3 not present in database
Track 4 not present in database
Track 5 not present in database
Track 6 not present in database
Track 7 not present in database
Track 8 not present in database
Track 9 not present in database
None of the tracks are present in the AccurateRip database
End of status report
REM GENRE Metal
REM DATE 2011
REM DISCID 590A9909
REM COMMENT "ExactAudioCopy v0.99pb5"
PERFORMER "Eumeria"
TITLE "Rebel Mind Promo"
FILE "Eumeria - Rebel Mind Promo.flac" WAVE
TRACK 01 AUDIO
TITLE "Legion"
PERFORMER "Eumeria"
FLAGS DCP
INDEX 01 00:00:00
TRACK 02 AUDIO
TITLE "Delusions"
PERFORMER "Eumeria"
FLAGS DCP
INDEX 01 05:15:51
TRACK 03 AUDIO
TITLE "Rebel Mind"
PERFORMER "Eumeria"
FLAGS DCP
INDEX 01 09:33:18
TRACK 04 AUDIO
TITLE "Father"
PERFORMER "Eumeria"
FLAGS DCP
INDEX 01 16:38:25
TRACK 05 AUDIO
TITLE "Tides"
PERFORMER "Eumeria"
FLAGS DCP
INDEX 01 22:13:31
TRACK 06 AUDIO
TITLE "The Key"
PERFORMER "Eumeria"
FLAGS DCP
INDEX 01 28:18:60
TRACK 07 AUDIO
TITLE "Red Light Flies"
PERFORMER "Eumeria"
FLAGS DCP
INDEX 01 33:26:01
TRACK 08 AUDIO
TITLE "Dreaming Of Death"
PERFORMER "Eumeria"
FLAGS DCP
INDEX 01 36:03:41
TRACK 09 AUDIO
TITLE "Secret Places"
PERFORMER "Eumeria"
FLAGS DCP
INDEX 01 40:42:74
AUDIOCHECKER v2.0 beta (build 457) - by Dester - [email protected]
~~~~~~~~~~~~~~~~~~~~~~~~~~~~~~~~~~
-=== НЕ РЕДАКТИРУЙТЕ ЭТОТ ФАЙЛ! ===-
Путь: ...\Eumeria - 2011 - Rebel Mind (Promo CD)
1 -=- Eumeria - Rebel Mind Promo.flac -=- CDDA (100%)
217379172
- -
Shawn Kascak : Bass
Kevin Bartlett : Drums
Reece Fullwood : Guitar
Bobby Williamson : Keyboards
Jonny Tatum : Vocals
- - -
Download / Скачать

Хотите скачать бесплатно? Зарегистрируйтесь на сайте (ссылка на регистрацию). Pirat.ca - самый быстрый торрент трекер в рунете!

Как скачивать  ·   Что такое торрент  ·   Рейтинг и ограничения

Показать сообщения:    
Ответить на тему

Текущее время: Сегодня 18:59

Часовой пояс: GMT + 4



Вы не можете начинать темы
Вы не можете отвечать на сообщения
Вы не можете редактировать свои сообщения
Вы не можете удалять свои сообщения
Вы не можете голосовать в опросах
Вы не можете прикреплять файлы к сообщениям
Вы не можете скачивать файлы

▼ Вниз