(Classical) VA - Metel’ – Г.Свиридов - 2012 (1 CD) [FLAC, tracks+cue, lossless]

Ответить на тему
 
Автор
Сообщение

Пост 19-Дек-2012 23:54

[Q] 

CHARLI2236

VA – Metel’ – Г.Свиридов - 2012 (1CD)
Год выпуска альбома: 2012
Страна: Россия
Жанр: Classical
Лейбл издания: Газпромбанк
Продолжительность: 0:36:12
Формат: FLAC
Битрейт аудио: lossless
Тип рипа: tracks+.cue
Источник (релизер): диск CDDA
Наличие сканов в содержимом раздачи: да
Трэклист
01 - Troika. (2:48)
02 - Rogdestvenskaya pesnya. (1:33)
03 - Vals. (4:20)
04 - Zima. (4:34)
05 - Zimnee utro. (3:04)
06 - Zimnaya doroga. (2:30)
07 - Sneg idet. (1:49)
08 - Peterburgskaya pesenka. (3:41)
09 - Voennyi marsh. (2:28)
10 - Mne gorya malo. (1:19)
11 - Romans. (5:08)
12 - Zimnaya doroga-2. (2:53)
”Отчет ЕАС”
Отчёт EAC об извлечении, выполненном 19. декабря 2012, 14:36 для диска:
Sviridov / METEL' (Газпромбанк)
Дисковод: _NEC DVD_RW ND-4550A Adapter: 0 ID: 1
Режим чтения: Достоверный (C2: нет, Точный поток: да, Отключение кэша: да)
Коррекция смещения при чтении: 48
Способность читать области Lead-in и Lead-out : Нет
Выходной формат: C:\Program Files\FLAC\flac.exe (Пользовательский кодировщик)
128 kBit/s
Дополнительные параметры: -8 -V -T "ARTIST=%a" -T "TITLE=%t" -T "ALBUM=%g" -T "DATE=%y" -T "TRACKNUMBER=%n" -T "GENRE=%m" -T "COMMENT=EAC FLAC -8" %s
Другие параметры:
Заполнение пропущенных сэмплов тишиной : Да
Удаление блоков с тишиной в начале и конце : Нет
Встроенный Win32-интерфейс для Win NT/2000
Трек 1
Имя файла C:\Sergei\новая папка\01 - Troika.wav
Длина предзазора 0:00:02.00
Пиковый уровень 97.5 %
Качество трека 99.9 %
CRC теста 83B5C24D
CRC копии 83B5C24D
Копирование... OK
Трек 2
Имя файла C:\Sergei\новая папка\02 - Rogdestvenskaya pesnya.wav
Пиковый уровень 99.0 %
Качество трека 100.0 %
CRC теста C140F7FD
CRC копии C140F7FD
Копирование... OK
Трек 3
Имя файла C:\Sergei\новая папка\03 - Vals.wav
Пиковый уровень 77.2 %
Качество трека 100.0 %
CRC теста 6D340FE7
CRC копии 6D340FE7
Копирование... OK
Трек 4
Имя файла C:\Sergei\новая папка\04 - Zima.wav
Пиковый уровень 76.3 %
Качество трека 99.9 %
CRC теста 0B85AA35
CRC копии 0B85AA35
Копирование... OK
Трек 5
Имя файла C:\Sergei\новая папка\05 - Zimnee utro.wav
Пиковый уровень 76.2 %
Качество трека 100.0 %
CRC теста 6D39AA33
CRC копии 6D39AA33
Копирование... OK
Трек 6
Имя файла C:\Sergei\новая папка\06 - Zimnaya doroga.wav
Пиковый уровень 69.9 %
Качество трека 100.0 %
CRC теста D9A3F47B
CRC копии D9A3F47B
Копирование... OK
Трек 7
Имя файла C:\Sergei\новая папка\07 - Sneg idet.wav
Пиковый уровень 52.3 %
Качество трека 99.9 %
CRC теста F04CD6BA
CRC копии F04CD6BA
Копирование... OK
Трек 8
Имя файла C:\Sergei\новая папка\08 - Peterburgskaya pesenka.wav
Пиковый уровень 62.5 %
Качество трека 100.0 %
CRC теста 1EA93516
CRC копии 1EA93516
Копирование... OK
Трек 9
Имя файла C:\Sergei\новая папка\09 - Voennyi marsh.wav
Пиковый уровень 44.6 %
Качество трека 100.0 %
CRC теста 40FA30BD
CRC копии 40FA30BD
Копирование... OK
Трек 10
Имя файла C:\Sergei\новая папка\10 - Mne gorya malo.wav
Пиковый уровень 98.4 %
Качество трека 100.0 %
CRC теста CB816063
CRC копии CB816063
Копирование... OK
Трек 11
Имя файла C:\Sergei\новая папка\11 - Romans.wav
Пиковый уровень 72.5 %
Качество трека 100.0 %
CRC теста 9C9EEEFA
CRC копии 9C9EEEFA
Копирование... OK
Трек 12
Имя файла C:\Sergei\новая папка\12 - Zimnaya doroga-2.wav
Пиковый уровень 57.9 %
Качество трека 100.0 %
CRC теста 3593D476
CRC копии 3593D476
Копирование... OK
Ошибок не произошло
Конец отчёта
"Non-compilant CUE"
REM GENRE Classical
REM DATE 2012
REM DISCID 8B087C0C
REM COMMENT "ExactAudioCopy v0.95b3"
PERFORMER "Sviridov"
TITLE "METEL' (Газпромбанк)"
FILE "01 - Troika.wav" WAVE
TRACK 01 AUDIO
TITLE "Troika"
PERFORMER "Sviridov"
INDEX 01 00:00:00
FILE "02 - Rogdestvenskaya pesnya.wav" WAVE
TRACK 02 AUDIO
TITLE "Rogdestvenskaya pesnya"
PERFORMER "Sviridov"
INDEX 01 00:00:00
FILE "03 - Vals.wav" WAVE
TRACK 03 AUDIO
TITLE "Vals"
PERFORMER "Sviridov"
INDEX 01 00:00:00
FILE "04 - Zima.wav" WAVE
TRACK 04 AUDIO
TITLE "Zima"
PERFORMER "Sviridov"
INDEX 01 00:00:00
FILE "05 - Zimnee utro.wav" WAVE
TRACK 05 AUDIO
TITLE "Zimnee utro"
PERFORMER "Sviridov"
INDEX 01 00:00:00
FILE "06 - Zimnaya doroga.wav" WAVE
TRACK 06 AUDIO
TITLE "Zimnaya doroga"
PERFORMER "Sviridov"
INDEX 01 00:00:00
FILE "07 - Sneg idet.wav" WAVE
TRACK 07 AUDIO
TITLE "Sneg idet"
PERFORMER "Sviridov"
INDEX 01 00:00:00
FILE "08 - Peterburgskaya pesenka.wav" WAVE
TRACK 08 AUDIO
TITLE "Peterburgskaya pesenka"
PERFORMER "Sviridov"
INDEX 01 00:00:00
FILE "09 - Voennyi marsh.wav" WAVE
TRACK 09 AUDIO
TITLE "Voennyi marsh"
PERFORMER "Sviridov"
INDEX 01 00:00:00
FILE "10 - Mne gorya malo.wav" WAVE
TRACK 10 AUDIO
TITLE "Mne gorya malo"
PERFORMER "Sviridov"
INDEX 01 00:00:00
FILE "11 - Romans.wav" WAVE
TRACK 11 AUDIO
TITLE "Romans"
PERFORMER "Sviridov"
INDEX 01 00:00:00
FILE "12 - Zimnaya doroga-2.wav" WAVE
TRACK 12 AUDIO
TITLE "Zimnaya doroga-2"
PERFORMER "Sviridov"
INDEX 01 00:00:00
"Лог Audiochecker"
AUDIOCHECKER v2.0 beta (build 457) - by Dester - opdester@freemail.hu
~~~~~~~~~~~~~~~~~~~~~~~~~~~~~~~~~~
-=== НЕ РЕДАКТИРУЙТЕ ЭТОТ ФАЙЛ! ===-
Путь: ...\CD1
01 -=- 01 - Troika.flac -=- CDDA (100%)
02 -=- 02 - Rogdestvenskaya pesnya.flac -=- MPEG (99%)
03 -=- 03 - Vals.flac -=- CDDA (100%)
04 -=- 04 - Zima.flac -=- CDDA (100%)
05 -=- 05 - Zimnee utro.flac -=- CDDA (100%)
06 -=- 06 - Zimnaya doroga.flac -=- CDDA (100%)
07 -=- 07 - Sneg idet.flac -=- CDDA (100%)
08 -=- 08 - Peterburgskaya pesenka.flac -=- CDDA (58%)
09 -=- 09 - Voennyi marsh.flac -=- CDDA (100%)
10 -=- 10 - Mne gorya malo.flac -=- CDDA (94%)
11 -=- 11 - Romans.flac -=- CDDA (100%)
12 -=- 12 - Zimnaya doroga-2.flac -=- CDDA (99%)
Сводка 87,67% CDDA
47542708
Мы помогаем людям, чтобы они, в свою очередь, помогли нам; таким образом, наши услуги сводятся просто к благодеяниям, которые мы загодя оказываем самим себе. (Франсуа де Ларошфуко)
Download / Скачать

Хотите скачать бесплатно? Зарегистрируйтесь на сайте (ссылка на регистрацию). Pirat.ca - самый быстрый торрент трекер в рунете!

Как скачивать  ·   Что такое торрент  ·   Рейтинг и ограничения

Fey

Юнга

Пост 02-Фев-2013 00:01 (спустя 1 месяц 13 дней)

[Q] 

Дайте скорости послушать а то вообще не скачивается по нулям.
[Профиль]  [ЛС] 

tfrtr1988

Лоцман

Пост 14-Янв-2014 22:49 (спустя 11 месяцев 12 дней)

[Q] 

Люблю классику. Побольше бы ее в хороше качестве.
[Профиль]  [ЛС] 

alekseii4

Лоцман

Пост 17-Янв-2014 01:11 (спустя 2 дня 2 часа)

[Q] 

Дайте скорости,с места не двигается.
[Профиль]  [ЛС] 

leestan27

Корсар

Пост 27-Мар-2015 23:19 (спустя 1 год 2 месяца)

[Q] 

Спасибо!!!
[Профиль]  [ЛС] 
Показать сообщения:    
Ответить на тему

Текущее время: Сегодня 12:01

Часовой пояс: GMT + 4



Вы не можете начинать темы
Вы не можете отвечать на сообщения
Вы не можете редактировать свои сообщения
Вы не можете удалять свои сообщения
Вы не можете голосовать в опросах
Вы не можете прикреплять файлы к сообщениям
Вы не можете скачивать файлы

Майнать ▼