(Opera) Беллини, Доницетти, Масканьи, Леонкавалло - Великие композиторы - Коллекция классики от "КП". Том 13. Итальянская опера "Паяцы" - 1960-1987 [FLAC, image+.cue, lossless]

Ответить на тему
 
Автор
Сообщение

Пост 07-Янв-2013 21:31

[Q] 

Кацо.

Лоцман

Беллини, Доницетти, Масканьи, Леонкавалло / Великие композиторы - Коллекция классики от "КП". Том 13. Итальянская опера "Паяцы"
Год издания: 1960-1987
Страна: Россия
Жанр: Opera
Продолжительность: 01.03.40
Лейбл издания: ФГУП "Фирма Мелодия"
Страна-выпуска диска: Россия
Номер по каталогу: MEL CD 10 01772
Источник (релизер): Кацо.
Формат: FLAC
Битрейт аудио: lossless
Тип рипа: image+.cue
Наличие сканов в содержимом раздачи: да
В. Беллини / Vincenzo Bellini
Опера «Норма» - Opera "Norma"
01. Увертюра - overture
02. Каватина Нормы (1 действие) - Cavatina di Norma (1 act.)
03. Финал (2 действие) - final (2 act.)
04. Сцена Амины из оперы «Сомнамбула» (3 действие)
05. Полонез Эльвиры из оперы «Пуритане» (1 действие)
Г. Доницетти / Gaetano Donizetti
06. Ария Эдгара из оперы «Лючия ди Ламмермур» (2 действие) / Aria of Edgara from an opera «Ljuchija di Lammermur» (2 act.)
07. Фантазия на тему из оперы «Лючия ди Ламмермур» / Imagination on a theme from an opera «Ljuchija di Lammermur»
08. Ария Леоноры из оперы «Фаворитка» / Aria of Leonory from an opera "Favourite"
П. Масканьи / Pietro Mascagni
Опера «Сельская честь» / Cavalleria rusticana
09. Романс Сантуццы / Romance of Santutstsy
10. Ария Туридду / Aria of Turiddu
Р. Леонкавалло / Ruggero Leoncavallo
Опера «Паяцы» / I Pagliacci
11. Интермеццо (2 действие) / Intermezzo (2 act.)
12. Серенада Арлекина / Serenada Arlecchino
Исполнители:
Мария Биешу, сопрано;
Государственный камерный хор Московской консерватории
Художественный руководитель Валерий Полянский
Оркестр Большого театра СССР
Дирижёр Марк Эрмлер (1 - 3)
Елена Зименкова, сопрано
Оркестр Большого театра СССР
Дирижёр Марк Эрмлер (4, 5)
Анатолий Соловьяненко, тенор
Оркестр Большого театра СССР
Дирижёр Борис Хайкин (6)
Вера Дулова, арфа (7)
Елена Образцова, меццо-сопрано
Оркестр Большого театра СССР
Дирижёр Одиссей Димитриади (8)
Ирина Архипова, меццо-сопрано
Оркестр Большого театра СССР
Дирижёр Марк Эрмлер (9)
Владислав Пьявко, тенор
Большой симфонический оркестр Всесоюзного радио и телевидения
Дирижёр Юрий Симонов (10)
Симфонический оркестр Ленинградской государственной филармонии
Дирижёр Арвид Янсонс (11)
Артур Айдинян, тенор
Оркестр Большого театра СССР
Дирижёр Альгис Жюрайтис (12)
Exact Audio Copy V0.99 prebeta 4 from 23. January 2008
Отчёт EAC об извлечении, выполненном 6. декабря 2010, 22:36
Various / №13. Итальянская опера. «Паяцы»
Дисковод: YAMAHA CRW-F1E Adapter: 1 ID: 1
Режим чтения : Достоверность
Использование точного потока : Да
Отключение кэша аудио : Да
Использование указателей C2 : Нет
Коррекция смещения при чтении : 733
Способность читать области Lead-in и Lead-out : Нет
Заполнение пропущенных сэмплов тишиной : Да
Удаление блоков с тишиной в начале и конце : Нет
При вычислениях CRC использовались нулевые сэмплы : Да
Интерфейс : Встроенный Win32-интерфейс для Win NT/2000
Выходной формат : Пользовательский кодировщик
Выбранный битрейт : 768 kBit/s
Качество : Высокий
Добавление ID3-тэга : Нет
Утилита сжатия : C:\Program Files\Exact Audio Copy\FLAC\FLAC.EXE
Дополнительные параметры : -6 -V -T "ARTIST=%a" -T "TITLE=%t" -T "ALBUM=%g" -T "DATE=%y" -T "TRACKNUMBER=%n" -T "GENRE=%m" -T "COMMENT=%e" %s -o %d
TOC извлечённого CD
Трек | Старт | Длительность | Начальный сектор | Конечный сектор
---------------------------------------------------------------------
1 | 0:02.00 | 5:45.36 | 150 | 26060
2 | 5:47.36 | 6:18.68 | 26061 | 54478
3 | 12:06.29 | 4:42.43 | 54479 | 75671
4 | 16:48.72 | 11:36.42 | 75672 | 127913
5 | 28:25.39 | 3:45.59 | 127914 | 144847
6 | 32:11.23 | 7:25.56 | 144848 | 178278
7 | 39:37.04 | 4:24.67 | 178279 | 198145
8 | 44:01.71 | 5:53.10 | 198146 | 224630
9 | 49:55.06 | 3:36.39 | 224631 | 240869
10 | 53:31.45 | 4:03.28 | 240870 | 259122
11 | 57:34.73 | 4:01.50 | 259123 | 277247
12 | 61:36.48 | 2:03.28 | 277248 | 286500
Характеристики диапазона извлечения и сообщения об ошибках
Выбранный диапазон
Имя файла D:\-На шару-\Великие композиторы\CD13-Итальянская опера\Various - №13. Итальянская опера. «Паяцы».wav
Пиковый уровень 99.8 %
Качество диапазона 100.0 %
CRC теста 219C8797
CRC копии 219C8797
Копирование... OK
Ошибок не произошло
AccurateRip: сводка
Трек 1 нет в базе данных
Трек 2 нет в базе данных
Трек 3 нет в базе данных
Трек 4 нет в базе данных
Трек 5 нет в базе данных
Трек 6 нет в базе данных
Трек 7 нет в базе данных
Трек 8 нет в базе данных
Трек 9 нет в базе данных
Трек 10 нет в базе данных
Трек 11 нет в базе данных
Трек 12 нет в базе данных
Ни одного трека нет в базе AccurateRip
Конец отчёта
REM GENRE Classical
REM DATE 2010
REM DISCID BA0EEA0C
REM COMMENT "ExactAudioCopy v0.99pb4"
PERFORMER "Various"
TITLE "№13. Итальянская опера. «Паяцы»"
FILE "Various - №13. Итальянская опера. «Паяцы».flac" WAVE
TRACK 01 AUDIO
TITLE "В.Беллини. Опера «Норма». Увертюра"
PERFORMER "В.Беллини. Опера «Норма». Увертюра"
FLAGS DCP
INDEX 00 00:00:00
INDEX 01 00:02:00
TRACK 02 AUDIO
TITLE "В.Беллини. Опера «Норма». Каватина Нормы (1 действие)"
PERFORMER "В.Беллини. Опера «Норма». Каватина Нормы (1 действие)"
FLAGS DCP
INDEX 00 05:43:51
INDEX 01 05:47:36
TRACK 03 AUDIO
TITLE "В.Беллини. Опера «Норма». Финал (2 действие)"
PERFORMER "В.Беллини. Опера «Норма». Финал (2 действие)"
FLAGS DCP
INDEX 00 12:02:39
INDEX 01 12:06:29
TRACK 04 AUDIO
TITLE "В.Беллини. Сцена Амины из оперы «Сомнамбула» (3 действие)"
PERFORMER "В.Беллини. Сцена Амины из оперы «Сомнамбула» (3 действие)"
FLAGS DCP
INDEX 00 16:44:74
INDEX 01 16:48:72
TRACK 05 AUDIO
TITLE "В.Беллини. Полонез Эльвиры из оперы «Пуритане» (1 действие)"
PERFORMER "В.Беллини. Полонез Эльвиры из оперы «Пуритане» (1 действие)"
FLAGS DCP
INDEX 00 28:21:37
INDEX 01 28:25:39
TRACK 06 AUDIO
TITLE "Г.Доницетти. Ария Эдгара из оперы «Лючия ди Ламмермур» (2 действие)"
PERFORMER "Г.Доницетти. Ария Эдгара из оперы «Лючия ди Ламмермур» (2 действие)"
FLAGS DCP
INDEX 00 32:07:29
INDEX 01 32:11:23
TRACK 07 AUDIO
TITLE "Г.Доницетти. Фантазия на тему из оперы «Лючия ди Ламмермур»"
PERFORMER "Г.Доницетти. Фантазия на тему из оперы «Лючия ди Ламмермур»"
FLAGS DCP
INDEX 00 39:33:24
INDEX 01 39:37:04
TRACK 08 AUDIO
TITLE "Г.Доницетти. Ария Леоноры из оперы «Фаворитка»"
PERFORMER "Г.Доницетти. Ария Леоноры из оперы «Фаворитка»"
FLAGS DCP
INDEX 00 43:58:02
INDEX 01 44:01:71
TRACK 09 AUDIO
TITLE "П.Масканьи. Опера «Сельская честь». Романс Сантуццы"
PERFORMER "П.Масканьи. Опера «Сельская честь». Романс Сантуццы"
FLAGS DCP
INDEX 00 49:51:28
INDEX 01 49:55:06
TRACK 10 AUDIO
TITLE "П.Масканьи. Опера «Сельская честь». Ария Туридду"
PERFORMER "П.Масканьи. Опера «Сельская честь». Ария Туридду"
FLAGS DCP
INDEX 00 53:27:61
INDEX 01 53:31:45
TRACK 11 AUDIO
TITLE "Р.Леонкавалло. Опера «Паяцы». Интермеццо (2 действие)"
PERFORMER "Р.Леонкавалло. Опера «Паяцы». Интермеццо (2 действие)"
FLAGS DCP
INDEX 00 57:31:05
INDEX 01 57:34:73
TRACK 12 AUDIO
TITLE "Р.Леонкавалло. Опера «Паяцы». Серенада Арлекина (2 действие)"
PERFORMER "Р.Леонкавалло. Опера «Паяцы». Серенада Арлекина (2 действие)"
FLAGS DCP
INDEX 00 61:32:51
INDEX 01 61:36:48
Годы записи: 1960 (11), 1961 (12), 1965 (8), 1971 (6, 9, 10), 1976 (7), 1986 (1 - 3), 1987 (4, 5).
(P) ФГУП «Фирма Мелодия», 2010.
(C) ЗАО «Издательский Дом «Комсомольская правда», 2010.
Download / Скачать

Хотите скачать бесплатно? Зарегистрируйтесь на сайте (ссылка на регистрацию). Pirat.ca - самый быстрый торрент трекер в рунете!

Как скачивать  ·   Что такое торрент  ·   Рейтинг и ограничения

Показать сообщения:    
Ответить на тему

Текущее время: Сегодня 11:04

Часовой пояс: GMT + 4



Вы не можете начинать темы
Вы не можете отвечать на сообщения
Вы не можете редактировать свои сообщения
Вы не можете удалять свои сообщения
Вы не можете голосовать в опросах
Вы не можете прикреплять файлы к сообщениям
Вы не можете скачивать файлы

Майнать ▼