ДДТ - Иначе (Live in Essen) [2013 г.] (Rock) [DVDRip]

Ответить на тему
 
Автор
Сообщение

Пост 07-Июл-2014 21:25

[Q] 

GMCJimmy

Легенда

-ДДТ - Иначе (Live in Essen)-- Год выпуска: 2013 г.
Страна: Россия
Жанр: Rock
Продолжительность: 02:46:03-Качество видео: DVDRip
Контейнер: AVI
Видео кодек: XviD
Аудио кодек: AC3
Видео: 720x400, 1777 kbps, 25,000 fps, 0.247 Бит/пиксел
Аудио: 448 kbps, 6ch, 48,0 kHz-Описание: В 2013 году группа ДДТ завершила свой двухлетний тур с программой «Иначе». Отличительной чертой этой программы является концептуальный видеоряд, разработанными молодыми талантливыми художниками в области современного искусства. Весной 2013 года в Германии состоялись сразу два грандиозных концерта легендарной российской рок-группы ДДТ! 8 мая 2013 года на площадке TEMPODROM в Берлине ДДТ выступила с уникальной программой «СОЛЬНИК», а 11 мая 2013 года в помещении Гругахалле (Grugahalle) в Эссене группа представила концептуальное визуально-музыкальное шоу «ИНАЧЕ»-
Live in Essen Часть 1:
01. Noise №1
02. Родившимся этой ночью
03. Солнечный свет
04. Эй, ты, кто ты
05. Пустота
06. Кризис
07. Проводник
08. Напиши мне, напиши
09. Встреча
10. Made In China
11. За тобой пришли
12. Новая Россия
13. Noise №2
14. Песня о времени
15. Когда ты была здесь
16. Песня о свободе
17. Юго-западный ветер
Live in Essen Часть 2:
01. Брови мои черные (Алена Романова)
02. Отдавала меня мать... (Алена Романова)
03. Пропавший без вести
04. Ветер
05. Просвистела
06. Актриса весна
07. Когда закончится нефть
08. Хиппаны
09. Мама, это рок-н-ролл
10. Где мы летим
11. Погром
12. Метель
13. Что такое осень
14. Родина
15. Это все
Полное имя : DDT - Live in Essen 1.avi
Формат : AVI
Формат/Информация : Audio Video Interleave
Размер файла : 1,33 Гбайт
Продолжительность : 1 ч. 25 м.
Общий поток : 2234 Кбит/сек
Программа кодирования : VirtualDubMod 1.5.10.3 | www.virtualdub-fr.org || (build 2550/release)
Библиотека кодирования : VirtualDubMod build 2550/release
Видео
Идентификатор : 0
Формат : MPEG-4 Visual
Профиль формата : Advanced Simple@L5
Параметр BVOP формата : 1
Параметр QPel формата : Нет
Параметр GMC формата : Без точки перехода
Параметр матрицы формата : Default (MPEG)
Идентификатор кодека : XVID
Идентификатор кодека/Подсказка : XviD
Продолжительность : 1 ч. 25 м.
Битрейт : 1777 Кбит/сек
Ширина : 720 пикселей
Высота : 400 пикселей
Соотношение сторон : 16:9
Частота кадров : 25,000 кадров/сек
Цветовое пространство : YUV
Субдискретизация насыщенности : 4:2:0
Битовая глубина : 8 бит
Тип развёртки : Прогрессивная
Метод сжатия : С потерями
Бит/(Пиксели*Кадры) : 0.247
Размер потока : 1,06 Гбайт (80%)
Библиотека кодирования : XviD 1.2.1 (UTC 2008-12-04)
Аудио
Идентификатор : 1
Формат : AC-3
Формат/Информация : Audio Coding 3
Расширение режима : CM (complete main)
Параметр Endianness формата : Big
Идентификатор кодека : 2000
Продолжительность : 1 ч. 25 м.
Вид битрейта : Постоянный
Битрейт : 448 Кбит/сек
Каналы : 6 каналов
Расположение каналов : Front: L C R, Side: L R, LFE
Частота : 48,0 КГц
Битовая глубина : 16 бит
Метод сжатия : С потерями
Размер потока : 274 Мбайт (20%)
Выравнивание : Разделение по промежуткам
Продолжительность промежутка : 40 мс. (1,00 видеокадр)
Время предзагрузки промежутка : 500 мс.
Общее
Полное имя : DDT - Live in Essen 2.avi
Формат : AVI
Формат/Информация : Audio Video Interleave
Размер файла : 1,33 Гбайт
Продолжительность : 1 ч. 20 м.
Общий поток : 2362 Кбит/сек
Программа кодирования : VirtualDubMod 1.5.10.3 | www.virtualdub-fr.org || (build 2550/release)
Библиотека кодирования : VirtualDubMod build 2550/release
Видео
Идентификатор : 0
Формат : MPEG-4 Visual
Профиль формата : Advanced Simple@L5
Параметр BVOP формата : 1
Параметр QPel формата : Нет
Параметр GMC формата : Без точки перехода
Параметр матрицы формата : Default (MPEG)
Идентификатор кодека : XVID
Идентификатор кодека/Подсказка : XviD
Продолжительность : 1 ч. 20 м.
Битрейт : 1904 Кбит/сек
Ширина : 720 пикселей
Высота : 400 пикселей
Соотношение сторон : 16:9
Частота кадров : 25,000 кадров/сек
Цветовое пространство : YUV
Субдискретизация насыщенности : 4:2:0
Битовая глубина : 8 бит
Тип развёртки : Прогрессивная
Метод сжатия : С потерями
Бит/(Пиксели*Кадры) : 0.264
Размер потока : 1,07 Гбайт (81%)
Библиотека кодирования : XviD 1.2.1 (UTC 2008-12-04)
Аудио
Идентификатор : 1
Формат : AC-3
Формат/Информация : Audio Coding 3
Расширение режима : CM (complete main)
Параметр Endianness формата : Big
Идентификатор кодека : 2000
Продолжительность : 1 ч. 20 м.
Вид битрейта : Постоянный
Битрейт : 448 Кбит/сек
Каналы : 6 каналов
Расположение каналов : Front: L C R, Side: L R, LFE
Частота : 48,0 КГц
Битовая глубина : 16 бит
Метод сжатия : С потерями
Размер потока : 259 Мбайт (19%)
Выравнивание : Разделение по промежуткам
Продолжительность промежутка : 40 мс. (1,00 видеокадр)
Время предзагрузки промежутка : 500 мс.
Download / Скачать

Хотите скачать бесплатно? Зарегистрируйтесь на сайте (ссылка на регистрацию). Pirat.ca - самый быстрый торрент трекер в рунете!

Как скачивать  ·   Что такое торрент  ·   Рейтинг и ограничения

HEDGEHOG932

Корсар

Пост 08-Июл-2014 06:19 (спустя 8 часов)

[Q] 

спасибо посмотрим!!!!!!!

_________________

[Профиль]  [ЛС] 

адлер27

Корсар

Пост 08-Июл-2014 07:44 (спустя 1 час 25 минут)

[Q] 

от души, GMCJimmy Спасибо!!!

_________________
[Профиль]  [ЛС] 

GMCJimmy ®

Легенда

9770

Пост 08-Июл-2014 22:31 (спустя 14 часов)

[Q] 

молодец Шевчук Мне понравилось
[Профиль]  [ЛС] 

alexx2201

34

Пост 26-Апр-2015 01:09 (спустя 9 месяцев 17 дней)

[Q] 

Спасибо посмотрю!

_________________
Одним ветром дышим, Пираты!
[Профиль]  [ЛС] 
Показать сообщения:    
Ответить на тему

Текущее время: Сегодня 12:00

Часовой пояс: GMT + 4



Вы не можете начинать темы
Вы не можете отвечать на сообщения
Вы не можете редактировать свои сообщения
Вы не можете удалять свои сообщения
Вы не можете голосовать в опросах
Вы не можете прикреплять файлы к сообщениям
Вы не можете скачивать файлы

Майнать ▼