Heart - Fanatic Live From Caesar's Colosseum [2014 г.] (Rock, Folk Rock, Hard Rock) [HDrip, 720p]

Ответить на тему
 
Автор
Сообщение

Пост 06-Сен-2016 02:11

[Q] 

Дядя Вова

Гроза морей

-Heart - Fanatic Live From Caesar's Colosseum-- Год выпуска: 2014 г.
Страна: Seattle, Washington, United States
Жанр: Rock, Folk Rock, Hard Rock
Студия: AXS TV
Продолжительность: 01:11:55-Качество видео: HDrip
Контейнер: MKV
Стандарт разрешения: 720p
Видео кодек: MPEG4 AVC
Аудио кодек: AC3
Видео: : 1 280 pixels x 720 pixels : 4 623 Kbps: 29.970 fps :
Аудио: : 640 Kbps : 6 channels : Front: L C R, Side: L R, LFE : 48.0 KHz :-
01. Fanatic
02. Heartless
03. What About Love
04. Mashallah!
05. Even It Up
06. 59 Crunch
07. On
08. Dog And Butterfly
09. Walking Good
10. These Dreams
11. Alone
12. Dear Old America
13. Crazy On You
14. Barracuda
-
General
UniqueID : 208169932662724803670932968334213573454 (0x9C9C1218526339FDA77C7C916F14EB4E)
Complete name : H:\Heart - Fanatic Live From Caesar's Colosseum (2014) [720p].mkv
Format : Matroska
File size : 2.64 GiB
Duration : 1h 11mn
Overall bit rate : 5 265 Kbps
Encoded date : UTC 2014-02-21 13:03:31
Writing application : mkvmerge v6.7.0 ('Back to the Ground') 32bit built on Jan 8 2014 15:03:17
Writing library : libebml v1.3.0 + libmatroska v1.4.1
Video
ID : 1
Format : AVC
Format/Info : Advanced Video Codec
Format profile : High@L4.1
Format settings, CABAC : Yes
Format settings, ReFrames : 5 frames
Codec ID : V_MPEG4/ISO/AVC
Duration : 1h 11mn
Bit rate : 4 623 Kbps
Width : 1 280 pixels
Height : 720 pixels
Display aspect ratio : 16:9
Frame rate : 29.970 fps
Color space : YUV
Chroma subsampling : 4:2:0
Bit depth : 8 bits
Scan type : Progressive
Bits/(Pixel*Frame) : 0.167
Stream size : 2.27 GiB (86%)
Title : Video
Writing library : x264 core 140 r2377 1ca7bb9
Encoding settings : cabac=1 / ref=5 / deblock=1:0:0 / analyse=0x3:0x133 / me=umh / subme=7 / psy=1 / psy_rd=1.00:0.00 / mixed_ref=1 / me_range=16 / chroma_me=1 / trellis=1 / 8x8dct=1 / cqm=0 / deadzone=21,11 / fast_pskip=0 / chroma_qp_offset=-2 / threads=12 / lookahead_threads=2 / sliced_threads=0 / nr=0 / decimate=1 / interlaced=0 / bluray_compat=0 / constrained_intra=0 / bframes=3 / b_pyramid=2 / b_adapt=1 / b_bias=0 / direct=1 / weightb=1 / open_gop=0 / weightp=2 / keyint=300 / keyint_min=29 / scenecut=40 / intra_refresh=0 / rc_lookahead=40 / rc=2pass / mbtree=1 / bitrate=4623 / ratetol=1.0 / qcomp=0.60 / qpmin=0 / qpmax=69 / qpstep=4 / cplxblur=20.0 / qblur=0.5 / ip_ratio=1.40 / aq=1:1.00
Language : English
Audio
ID : 2
Format : AC-3
Format/Info : Audio Coding 3
Mode extension : CM (complete main)
Codec ID : A_AC3
Duration : 1h 11mn
Bit rate mode : Constant
Bit rate : 640 Kbps
Channel(s) : 6 channels
Channel positions : Front: L C R, Side: L R, LFE
Sampling rate : 48.0 KHz
Bit depth : 16 bits
Compression mode : Lossy
Stream size : 329 MiB (12%)
Title : English
Language : English
Menu
00:00:00.000 : en:00:00:00.000
00:01:39.333 : en:00:01:39.333
00:05:15.382 : en:00:05:15.382
00:10:55.221 : en:00:10:55.221
00:15:27.226 : en:00:15:27.226
00:20:17.917 : en:00:20:17.917
00:24:50.222 : en:00:24:50.222
00:28:07.252 : en:00:28:07.252
00:33:32.577 : en:00:33:32.577
00:40:13.978 : en:00:40:13.978
00:44:26.030 : en:00:44:26.030
00:49:43.981 : en:00:49:43.981
00:54:28.332 : en:00:54:28.332
00:59:35.939 : en:00:59:35.939
01:05:01.131 : en:01:05:01.131
01:10:38.701 : en:01:10:38.701
-
--Работаю не за Спасибо , а за ИДЕЮ.--
Download / Скачать

Хотите скачать бесплатно? Зарегистрируйтесь на сайте (ссылка на регистрацию). Pirat.ca - самый быстрый торрент трекер в рунете!

Как скачивать  ·   Что такое торрент  ·   Рейтинг и ограничения

Показать сообщения:    
Ответить на тему

Текущее время: Сегодня 11:03

Часовой пояс: GMT + 4



Вы не можете начинать темы
Вы не можете отвечать на сообщения
Вы не можете редактировать свои сообщения
Вы не можете удалять свои сообщения
Вы не можете голосовать в опросах
Вы не можете прикреплять файлы к сообщениям
Вы не можете скачивать файлы

Майнать ▼