Уважаемый Гость!
Вы можете поддержать проект и зарегистрироваться у наших партнеров - онлайн-стратегия MyLands. При регистрации в игре Вы получите код, который сможете активировать после регистрации на pirat.ca и получить 1000 дублонов.

Ваш код:
0f1be5072d2fb8a64c7adec1c9570e0522699fb5
 
     

Skillet - Pinkpop 2016 - Monster [2016 г.] (Christian Rock, Christian Metal, Alternative Rock, Hard Rock, Nu Metal, Symphonic Metal) [DVB-S, 1080p]

Ответить на тему
 
Автор
Сообщение

Пост 02-Ноя-2016 21:21

[Q] 

Дядя Вова

Гроза морей

-Skillet - Pinkpop 2016 - Monster-- Год выпуска: 2016 г.
Страна: USA
Жанр: Christian Rock, Christian Metal, Alternative Rock, Hard Rock, Nu Metal, Symphonic Metal
Продолжительность: 00:03:45-Качество видео: DVB-S
Контейнер: MKV
Стандарт разрешения: 1080p
Видео кодек: MPEG4 AVC
Аудио кодек: AC3
Видео: : 1 904 pixels X 1 080 pixels : 13.9 Mbps : 25.000 fps :
Аудио: : 448 Kbps : 6 channels : 48.0 KHz :-
General
UniqueID : 229996364172640728023779145128597301429 (0xAD07B0409ECE2F8185CAE97C4B80A8B5)
Complete name : G:\Skillet-Monster_(Pinkpop_2016)-1080p-x264-2016-SRP\skillet-monster_(pinkpop_2016)-1080p-x264-2016-srp.mkv
Format : Matroska
File size : 394 MiB
Duration : 3mn 45s
Overall bit rate : 14.7 Mbps
Encoded date : UTC 2016-10-27 12:28:20
Writing application : mkvmerge v9.2.0 ('Photograph') 64bit
Writing library : libebml v1.3.3 + libmatroska v1.4.4
Video
ID : 1
Format : AVC
Format/Info : Advanced Video Codec
Format profile : [email protected]
Format settings, CABAC : Yes
Format settings, ReFrames : 4 frames
Codec ID : V_MPEG4/ISO/AVC
Duration : 3mn 45s
Bit rate : 13.9 Mbps
Width : 1 904 pixels
Height : 1 080 pixels
Display aspect ratio : 16:9
Frame rate : 25.000 fps
Color space : YUV
Chroma subsampling : 4:2:0
Bit depth : 8 bits
Scan type : Progressive
Bits/(Pixel*Frame) : 0.271
Stream size : 374 MiB (95%)
Writing library : x264 core 148 r2721 72d53ab
Encoding settings : cabac=1 / ref=4 / deblock=1:-1:-1 / analyse=0x3:0x133 / me=umh / subme=9 / psy=1 / psy_rd=1.00:0.00 / mixed_ref=1 / me_range=32 / chroma_me=1 / trellis=1 / 8x8dct=1 / cqm=0 / deadzone=21,11 / fast_pskip=1 / chroma_qp_offset=-2 / threads=12 / lookahead_threads=1 / sliced_threads=0 / nr=0 / decimate=1 / interlaced=0 / bluray_compat=0 / constrained_intra=0 / bframes=3 / b_pyramid=2 / b_adapt=2 / b_bias=0 / direct=3 / weightb=1 / open_gop=0 / weightp=2 / keyint=250 / keyint_min=25 / scenecut=40 / intra_refresh=0 / rc_lookahead=60 / rc=crf / mbtree=1 / crf=20.0 / qcomp=0.60 / qpmin=0 / qpmax=69 / qpstep=4 / ip_ratio=1.40 / aq=1:1.00
Language : English
Audio
ID : 2
Format : AC-3
Format/Info : Audio Coding 3
Mode extension : CM (complete main)
Codec ID : A_AC3
Duration : 3mn 45s
Bit rate mode : Constant
Bit rate : 448 Kbps
Channel(s) : 6 channels
Channel positions : Front: L C R, Side: L R, LFE
Sampling rate : 48.0 KHz
Bit depth : 16 bits
Compression mode : Lossy
Stream size : 12.0 MiB (3%)
-
--Работаю не за Спасибо , а за ИДЕЮ.--
Download / Скачать

Хотите скачать бесплатно? Зарегистрируйтесь на сайте (ссылка на регистрацию). Pirat.ca - самый быстрый торрент трекер в рунете!

Как скачивать  ·   Что такое торрент  ·   Рейтинг и ограничения

Показать сообщения:    
Ответить на тему

Текущее время: Сегодня 00:21

Часовой пояс: GMT + 4



Вы не можете начинать темы
Вы не можете отвечать на сообщения
Вы не можете редактировать свои сообщения
Вы не можете удалять свои сообщения
Вы не можете голосовать в опросах
Вы не можете прикреплять файлы к сообщениям
Вы не можете скачивать файлы

▼ Вниз