Уважаемый Гость!
Вы можете поддержать проект и зарегистрироваться у наших партнеров - онлайн-стратегия MyLands. При регистрации в игре Вы получите код, который сможете активировать после регистрации на pirat.ca и получить 1000 дублонов.

Ваш код:
60d6e9c000233e14387a537701beefec023ccf6a
 
     

Rock Wolves - Rock For The Nations [2016 г.] (Hard Rock) [UHDTVRip, 1440p]

Ответить на тему
 
Автор
Сообщение

Пост 06-Ноя-2016 04:11

[Q] 

Дядя Вова

Гроза морей

-Rock Wolves - Rock For The Nations-- Год выпуска: 2016 г.
Страна: USA
Жанр: Hard Rock
Продолжительность: 00:03:47-Качество видео: HDTVRip
Контейнер: MKV
Стандарт разрешения: 1440p
Видео кодек: MPEG4 AVC
Аудио кодек: MP3
Видео: : 2 560 pixels х 1 064 pixels : 13.4 Mbps: 25.000 fps :
Аудио: : 320 Kbps : 2 channels : 44.1 KHz :-
General
UniqueID : 201275854151122559254211742816632050915 (0x976C51C8139B6AAB87F7A4348FB014E3)
Complete name : G:\Rock_Wolves-Rock_For_The_Nations-DDC-1440p-x264-2016-LOVERS\rock_wolves-rock_for_the_nations-ddc-1440p-x264-2016-lovers.mkv
Format : Matroska
File size : 380 MiB
Duration : 3mn 47s
Overall bit rate : 14.0 Mbps
Encoded date : UTC 2016-11-04 23:20:43
Writing application : mkvmerge v9.5.0 ('Quiet Fire') 32bit
Writing library : libebml v1.3.4 + libmatroska v1.4.5
Video
ID : 1
Format : AVC
Format/Info : Advanced Video Codec
Format profile : [email protected]
Format settings, CABAC : Yes
Format settings, ReFrames : 4 frames
Codec ID : V_MPEG4/ISO/AVC
Duration : 3mn 47s
Bit rate : 13.4 Mbps
Width : 2 560 pixels
Height : 1 064 pixels
Display aspect ratio : 2.40:1
Frame rate : 25.000 fps
Color space : YUV
Chroma subsampling : 4:2:0
Bit depth : 8 bits
Scan type : Progressive
Bits/(Pixel*Frame) : 0.197
Stream size : 364 MiB (96%)
Writing library : x264 core 148 r2721 72d53ab
Encoding settings : cabac=1 / ref=3 / deblock=1:0:0 / analyse=0x3:0x113 / me=umh / subme=9 / psy=1 / psy_rd=1.00:0.00 / mixed_ref=1 / me_range=24 / chroma_me=1 / trellis=1 / 8x8dct=1 / cqm=0 / deadzone=21,11 / fast_pskip=1 / chroma_qp_offset=-2 / threads=6 / lookahead_threads=1 / sliced_threads=0 / nr=0 / decimate=1 / interlaced=0 / bluray_compat=0 / constrained_intra=0 / bframes=16 / b_pyramid=2 / b_adapt=1 / b_bias=0 / direct=1 / weightb=1 / open_gop=0 / weightp=2 / keyint=250 / keyint_min=25 / scenecut=40 / intra_refresh=0 / rc_lookahead=40 / rc=crf / mbtree=1 / crf=19.0 / qcomp=0.60 / qpmin=0 / qpmax=69 / qpstep=4 / vbv_maxrate=62500 / vbv_bufsize=78125 / crf_max=0.0 / nal_hrd=none / filler=0 / ip_ratio=1.40 / aq=1:1.00
Audio
ID : 2
Format : MPEG Audio
Format version : Version 1
Format profile : Layer 3
Mode : Joint stereo
Codec ID : A_MPEG/L3
Codec ID/Hint : MP3
Duration : 3mn 47s
Bit rate mode : Constant
Bit rate : 320 Kbps
Channel(s) : 2 channels
Sampling rate : 44.1 KHz
Compression mode : Lossy
Video delay : 11ms
Stream size : 8.67 MiB (2%)
Writing library : LAME3.99.5UUUUUUUUU
-
--Работаю не за Спасибо , а за ИДЕЮ.--
Download / Скачать

Хотите скачать бесплатно? Зарегистрируйтесь на сайте (ссылка на регистрацию). Pirat.ca - самый быстрый торрент трекер в рунете!

Как скачивать  ·   Что такое торрент  ·   Рейтинг и ограничения

Пост 22-Окт-2017 14:06 (спустя 11 месяцев 16 дней)

Топик был перенесен из форума New Clips в форум Rock
Serjinyo
 
Показать сообщения:    
Ответить на тему

Текущее время: Сегодня 15:49

Часовой пояс: GMT + 4



Вы не можете начинать темы
Вы не можете отвечать на сообщения
Вы не можете редактировать свои сообщения
Вы не можете удалять свои сообщения
Вы не можете голосовать в опросах
Вы не можете прикреплять файлы к сообщениям
Вы не можете скачивать файлы

▼ Вниз