Уважаемый Гость!
Вы можете поддержать проект и зарегистрироваться у наших партнеров - онлайн-стратегия MyLands. При регистрации в игре Вы получите код, который сможете активировать после регистрации на pirat.ca и получить 1000 дублонов.

Ваш код:
78aa50a474eca84d8db013aa70ab4d3c854287b1
 
     

Bon Jovi - Knockout [2016 г.] (Rock, Pop Rock, Hard Rock) [WEB HD, 720p]

Ответить на тему
 
Автор
Сообщение

Пост 11-Ноя-2016 23:43

[Q] 

Дядя Вова

Гроза морей

-Bon Jovi - Knockout-- Год выпуска: 2016 г.
Страна: USA
Жанр: Rock, Pop Rock, Hard Rock
Продолжительность: 00:03:28-Качество видео: WEB HD
Контейнер: MKV
Стандарт разрешения: 720p
Видео кодек: MPEG4 AVC
Аудио кодек: MP3
Видео: : 1 280 pixels x 480 pixels : 1 961 Kbps : 23.976 fps :
Аудио: : 320 Kbps : 2 channels : 44.1 KHz :-
General
UniqueID : 245326790754629861726027948134314501473 (0xB89038A3ACB32CEF949D6FD5F4AB6561)
Complete name : G:\Bon_Jovi-Knockout-DDC-720p-x264-2016-LOVERS\bon_jovi-knockout-ddc-720p-x264-2016-lovers.mkv
Format : Matroska
File size : 57.9 MiB
Duration : 3mn 28s
Overall bit rate : 2 327 Kbps
Encoded date : UTC 2016-11-09 21:37:44
Writing application : mkvmerge v9.5.0 ('Quiet Fire') 32bit
Writing library : libebml v1.3.4 + libmatroska v1.4.5
Video
ID : 1
Format : AVC
Format/Info : Advanced Video Codec
Format profile : [email protected]
Format settings, CABAC : Yes
Format settings, ReFrames : 5 frames
Codec ID : V_MPEG4/ISO/AVC
Duration : 3mn 28s
Bit rate : 1 961 Kbps
Width : 1 280 pixels
Height : 480 pixels
Display aspect ratio : 2.667
Frame rate : 23.976 fps
Color space : YUV
Chroma subsampling : 4:2:0
Bit depth : 8 bits
Scan type : Progressive
Bits/(Pixel*Frame) : 0.133
Stream size : 48.8 MiB (84%)
Writing library : x264 core 148 r2721 72d53ab
Encoding settings : cabac=1 / ref=5 / deblock=1:0:0 / analyse=0x3:0x113 / me=umh / subme=9 / psy=1 / psy_rd=1.00:0.00 / mixed_ref=1 / me_range=24 / chroma_me=1 / trellis=1 / 8x8dct=1 / cqm=0 / deadzone=21,11 / fast_pskip=1 / chroma_qp_offset=-2 / threads=6 / lookahead_threads=1 / sliced_threads=0 / nr=0 / decimate=1 / interlaced=0 / bluray_compat=0 / constrained_intra=0 / bframes=16 / b_pyramid=2 / b_adapt=1 / b_bias=0 / direct=1 / weightb=1 / open_gop=0 / weightp=2 / keyint=240 / keyint_min=23 / scenecut=40 / intra_refresh=0 / rc_lookahead=40 / rc=crf / mbtree=1 / crf=17.0 / qcomp=0.60 / qpmin=0 / qpmax=69 / qpstep=4 / vbv_maxrate=62500 / vbv_bufsize=78125 / crf_max=0.0 / nal_hrd=none / filler=0 / ip_ratio=1.40 / aq=1:1.00
Audio
ID : 2
Format : MPEG Audio
Format version : Version 1
Format profile : Layer 3
Mode : Joint stereo
Mode extension : MS Stereo
Codec ID : A_MPEG/L3
Codec ID/Hint : MP3
Duration : 3mn 28s
Bit rate mode : Constant
Bit rate : 320 Kbps
Channel(s) : 2 channels
Sampling rate : 44.1 KHz
Compression mode : Lossy
Video delay : 25ms
Stream size : 7.97 MiB (14%)
Writing library : LAME3.99.5
-
--Работаю не за Спасибо , а за ИДЕЮ.--
Download / Скачать

Хотите скачать бесплатно? Зарегистрируйтесь на сайте (ссылка на регистрацию). Pirat.ca - самый быстрый торрент трекер в рунете!

Как скачивать  ·   Что такое торрент  ·   Рейтинг и ограничения

Пост 12-Ноя-2016 00:14 (спустя 31 минута)

Топик был перенесен из форума Clips (Трюм) в форум New Clips
sergej644
 
Показать сообщения:    
Ответить на тему

Текущее время: Сегодня 11:37

Часовой пояс: GMT + 4



Вы не можете начинать темы
Вы не можете отвечать на сообщения
Вы не можете редактировать свои сообщения
Вы не можете удалять свои сообщения
Вы не можете голосовать в опросах
Вы не можете прикреплять файлы к сообщениям
Вы не можете скачивать файлы

▼ Вниз