Sting - Le Bataclan (Paris 2016-11-12) [2016 г.] (Rock) [HDTVRip, 1080p]

Ответить на тему
 
Автор
Сообщение

Пост 30-Ноя-2016 00:53

[Q] 

Дядя Вова

Гроза морей

-Sting - Le Bataclan (Paris 2016-11-12)-- Год выпуска: 2016 г.
Страна: UK
Жанр: Rock
Продолжительность: 01:30:27-Качество видео: HDTVRip
Контейнер: MKV
Стандарт разрешения: 1080p
Видео кодек: MPEG4 AVC
Аудио кодек: AC3
Видео: : 1 916 pixels x 1 078 pixels : 6 867 Kbps: 25.000 fps :
Аудио: : 192 Kbps : 2 channels : 48.0 KHz :-
01. Fragile (with Ibrahim Maalouf)
02. Message in a Bottle
03. I Can't Stop Thinking About You
04. One Fine Day
05. 50,000
06. I nshallah (with Ibrahim Maalouf)
07. Petrol Head
08. Down, Down, Down
09. Driven to Tears
10. Englishman in New York
11. Desert Rose (with Ibrahim Maalouf)
12. Every Breath You Take
Encore:
13. So Lonely
14. Walking on the Moon
15. Roxanne
16. Ain't No Sunshine (Bill Withers cover)
Encore 2:
17. Next to You (with Henri Padovani)
18. The Empty Chair
-
General
UniqueID : 238345922087562604541311816392635595466 (0xB34FC13DA8E23E7189E7C94030043ACA)
Complete name : H:\перадко\Sting-Le_Bataclan_(Paris_2016-11-12)-1080p-x264-2016.mkv
Format : Matroska
File size : 4.55 GiB
Duration : 1h 30mn
Overall bit rate : 7 202 Kbps
Encoded date : UTC 2016-11-28 16:20:29
Writing application : mkvmerge v9.4.0 ('Knurl') 32bit
Writing library : libebml v1.3.4 + libmatroska v1.4.5
Video
ID : 1
Format : AVC
Format/Info : Advanced Video Codec
Format profile : [email protected]
Format settings, CABAC : Yes
Format settings, ReFrames : 4 frames
Codec ID : V_MPEG4/ISO/AVC
Duration : 1h 30mn
Bit rate : 6 867 Kbps
Width : 1 916 pixels
Height : 1 078 pixels
Display aspect ratio : 16:9
Frame rate : 25.000 fps
Color space : YUV
Chroma subsampling : 4:2:0
Bit depth : 8 bits
Scan type : Progressive
Bits/(Pixel*Frame) : 0.133
Stream size : 4.34 GiB (95%)
Writing library : x264 core 148 r2721 72d53ab
Encoding settings : cabac=1 / ref=4 / deblock=1:-1:-1 / analyse=0x3:0x133 / me=umh / subme=9 / psy=1 / psy_rd=1.00:0.00 / mixed_ref=1 / me_range=32 / chroma_me=1 / trellis=1 / 8x8dct=1 / cqm=0 / deadzone=21,11 / fast_pskip=1 / chroma_qp_offset=-2 / threads=12 / lookahead_threads=1 / sliced_threads=0 / nr=0 / decimate=1 / interlaced=0 / bluray_compat=0 / constrained_intra=0 / bframes=3 / b_pyramid=2 / b_adapt=2 / b_bias=0 / direct=3 / weightb=1 / open_gop=0 / weightp=2 / keyint=250 / keyint_min=25 / scenecut=40 / intra_refresh=0 / rc_lookahead=60 / rc=crf / mbtree=1 / crf=18.0 / qcomp=0.60 / qpmin=0 / qpmax=69 / qpstep=4 / ip_ratio=1.40 / aq=1:1.00
Audio
ID : 2
Format : AC-3
Format/Info : Audio Coding 3
Mode extension : CM (complete main)
Codec ID : A_AC3
Duration : 1h 30mn
Bit rate mode : Constant
Bit rate : 192 Kbps
Channel(s) : 2 channels
Channel positions : Front: L R
Sampling rate : 48.0 KHz
Bit depth : 16 bits
Compression mode : Lossy
Stream size : 124 MiB (3%)
-
--Работаю не за Спасибо , а за ИДЕЮ.--
Download / Скачать

Хотите скачать бесплатно? Зарегистрируйтесь на сайте (ссылка на регистрацию). Pirat.ca - самый быстрый торрент трекер в рунете!

Как скачивать  ·   Что такое торрент  ·   Рейтинг и ограничения

Пост 30-Ноя-2016 04:23 (спустя 3 часа)

Топик был перенесен из форума Music video (HD/DVD) (Трюм) в форум Rock
sergej644
 

CloneShogun80

Лоцман

Пост 30-Ноя-2016 23:43 (спустя 22 часа)

[Q] 

Спасибо, дорогой.
Дядьку Стига Эрнестовича всегда послушать ..
... а ка посмотреть то!
Спасибо
[Профиль]  [ЛС] 
Показать сообщения:    
Ответить на тему

Текущее время: Сегодня 07:43

Часовой пояс: GMT + 4



Вы не можете начинать темы
Вы не можете отвечать на сообщения
Вы не можете редактировать свои сообщения
Вы не можете удалять свои сообщения
Вы не можете голосовать в опросах
Вы не можете прикреплять файлы к сообщениям
Вы не можете скачивать файлы

Майнать ▼