Depeche Mode - Wheres The Revolution [2017 г.] (Electronic Rock, Dance-Rock, Alternative Rock, Synthpop, New Wave) [WEB HD, 1080p]

Ответить на тему
 
Автор
Сообщение

Пост 26-Мар-2017 02:08

[Q] 

Дядя Вова

Гроза морей

-Depeche Mode - Wheres The Revolution-- Год выпуска: 2017 г.
Страна: Basildon, Essex, England
Жанр: Electronic Rock, Dance-Rock, Alternative Rock, Synthpop, New Wave
Продолжительность: 00:04:01-Качество видео: HDTVRip
Контейнер: MKV
Стандарт разрешения: 1080p
Видео кодек: MPEG4 AVC
Аудио кодек: MP3
Видео: : 1 920 pixels х 1 080 pixels : 6 174 Kbps : 23.976 fps :
Аудио: : 253 Kbps : 2 channels : 44.1 KHz :-
1. Wheres The Revolution
General
UniqueID : 205431450902397087223848572556699041482 (0x9A8CA8851D9E0D719D086F82A5ACFECA)
Complete name : G:\Depeche_Mode-Wheres_The_Revolution-1080p-x264-2017-SRP\depeche_mode-wheres_the_revolution-1080p-x264-2017-srp.mkv
Format : Matroska
File size : 188 MiB
Duration : 4mn 1s
Overall bit rate : 6 558 Kbps
Encoded date : UTC 2017-03-18 12:55:55
Writing application : mkvmerge v7.5.0 ('Glass Culture') 64bit built on Jan 4 2015 16:48:44
Writing library : libebml v1.3.1 + libmatroska v1.4.2
Video
ID : 1
Format : AVC
Format/Info : Advanced Video Codec
Format profile : High@L4.1
Format settings, CABAC : Yes
Format settings, ReFrames : 4 frames
Format settings, GOP : M=1, N=2
Codec ID : V_MPEG4/ISO/AVC
Duration : 4mn 1s
Bit rate : 6 174 Kbps
Width : 1 920 pixels
Height : 1 080 pixels
Display aspect ratio : 16:9
Frame rate : 23.976 fps
Color space : YUV
Chroma subsampling : 4:2:0
Bit depth : 8 bits
Scan type : Progressive
Bits/(Pixel*Frame) : 0.124
Stream size : 177 MiB (94%)
Title : + SRP +
Writing library : x264 core 148 r2762 90a61ec
Encoding settings : cabac=1 / ref=4 / deblock=1:-2:-1 / analyse=0x3:0x133 / me=umh / subme=9 / psy=1 / psy_rd=1.00:0.00 / mixed_ref=1 / me_range=32 / chroma_me=1 / trellis=2 / 8x8dct=1 / cqm=0 / deadzone=21,11 / fast_pskip=1 / chroma_qp_offset=-2 / threads=9 / lookahead_threads=1 / sliced_threads=0 / nr=0 / decimate=1 / interlaced=0 / bluray_compat=0 / constrained_intra=0 / bframes=3 / b_pyramid=2 / b_adapt=2 / b_bias=0 / direct=3 / weightb=1 / open_gop=0 / weightp=2 / keyint=250 / keyint_min=23 / scenecut=40 / intra_refresh=0 / rc_lookahead=60 / rc=crf / mbtree=1 / crf=16.0 / qcomp=0.60 / qpmin=0 / qpmax=69 / qpstep=4 / ip_ratio=1.40 / aq=1:1.00
Audio
ID : 2
Format : MPEG Audio
Format version : Version 1
Format profile : Layer 3
Mode : Joint stereo
Codec ID : A_MPEG/L3
Codec ID/Hint : MP3
Duration : 4mn 0s
Bit rate mode : Variable
Bit rate : 253 Kbps
Minimum bit rate : 32.0 Kbps
Channel(s) : 2 channels
Sampling rate : 44.1 KHz
Compression mode : Lossy
Stream size : 7.28 MiB (4%)
Title : (RiBS)
Writing library : LAME3.98r
Encoding settings : -m j -V 0 -q 0 -lowpass 19.5 --vbr-new -b 32
Language : English
Download / Скачать

Хотите скачать бесплатно? Зарегистрируйтесь на сайте (ссылка на регистрацию). Pirat.ca - самый быстрый торрент трекер в рунете!

Как скачивать  ·   Что такое торрент  ·   Рейтинг и ограничения

homer_q

Морской Волк

Пост 10-Май-2017 20:56 (спустя 1 месяц 15 дней)

[Q] 

Посмотрел несколько раз.
Я конечно это выше среднего, но откровенно говоря не шедевр.
[Профиль]  [ЛС] 
Показать сообщения:    
Ответить на тему

Текущее время: Сегодня 11:01

Часовой пояс: GMT + 4



Вы не можете начинать темы
Вы не можете отвечать на сообщения
Вы не можете редактировать свои сообщения
Вы не можете удалять свои сообщения
Вы не можете голосовать в опросах
Вы не можете прикреплять файлы к сообщениям
Вы не можете скачивать файлы

Майнать ▼