Def Leppard And There Will Be A Next Time Live from Detroit - 2017 [2017 г.] (Hard Rock, Heavy Metal) [BDRip, 1080p]

Ответить на тему
 
Автор
Сообщение

Пост 01-Апр-2017 04:13

[Q] 

Дядя Вова

Гроза морей

-Def Leppard And There Will Be A Next Time Live from Detroit - 2017-- Год выпуска: 2017 г.
Страна: Sheffield, England, UK
Жанр: Hard Rock, Heavy Metal
Продолжительность: 01:28:51-Качество видео: BDRip
Контейнер: MKV
Стандарт разрешения: 1080p
Видео кодек: MPEG4 AVC
Аудио кодек: DTS
Видео: : 1 920 pixels x 1 080 pixels : 9 045 Kbps : 29.970 fps :
Аудио: : 1 510 Kbps : 6 channels : Front: L C R, Side: L R, LFE :: 48.0 KHz :-
1. Let's Go
2. Animal
3. Let It Go
4. Dangerous
5. Foolin'
6. Love Bites
7. Armageddon It
8. Rock On
9. Man Enough
10. Rocket
11. Bringin' On The Heartbreak
12. Switch 625
13. Hysteria Let's Get Rocked
14. Pour Some Sugar On Me
15. Rock Of Ages
16. Photograph
General
UniqueID : 251708755156133961191479949250043648087 (0xBD5D57C71CC2F403ADA3C5E42E4D1857)
Complete name : H:\перадко\Def.Leppard.And.There.Will.Be.A.Next.Time.Live.from.Detroit.2017.mkv
Format : Matroska
File size : 6.55 GiB
Duration : 1h 28mn
Overall bit rate : 10.6 Mbps
Encoded date : UTC 2017-03-25 12:04:17
Writing application : mkvmerge v8.1.0 ('Psychedelic Postcard') 64bit
Writing library : libebml v1.3.1 + libmatroska v1.4.2
Video
ID : 1
Format : AVC
Format/Info : Advanced Video Codec
Format profile : High@L4.1
Format settings, CABAC : Yes
Format settings, ReFrames : 4 frames
Codec ID : V_MPEG4/ISO/AVC
Duration : 1h 28mn
Bit rate : 9 045 Kbps
Width : 1 920 pixels
Height : 1 080 pixels
Display aspect ratio : 16:9
Frame rate : 29.970 fps
Color space : YUV
Chroma subsampling : 4:2:0
Bit depth : 8 bits
Scan type : Progressive
Bits/(Pixel*Frame) : 0.146
Stream size : 5.48 GiB (84%)
Writing library : x264 core 148 r2762 90a61ec
Encoding settings : cabac=1 / ref=4 / deblock=1:0:0 / analyse=0x3:0x113 / me=umh / subme=8 / psy=1 / psy_rd=1.00:0.00 / mixed_ref=1 / me_range=16 / chroma_me=1 / trellis=2 / 8x8dct=1 / cqm=0 / deadzone=21,11 / fast_pskip=0 / chroma_qp_offset=-2 / threads=12 / lookahead_threads=2 / sliced_threads=0 / nr=0 / decimate=1 / interlaced=0 / bluray_compat=0 / constrained_intra=0 / bframes=3 / b_pyramid=2 / b_adapt=1 / b_bias=0 / direct=3 / weightb=1 / open_gop=0 / weightp=2 / keyint=250 / keyint_min=25 / scenecut=40 / intra_refresh=0 / rc_lookahead=50 / rc=2pass / mbtree=1 / bitrate=9045 / ratetol=1.0 / qcomp=0.60 / qpmin=0 / qpmax=69 / qpstep=4 / cplxblur=20.0 / qblur=0.5 / ip_ratio=1.40 / aq=1:1.00
Language : English
Audio
ID : 2
Format : DTS
Format/Info : Digital Theater Systems
Codec ID : A_DTS
Duration : 1h 28mn
Bit rate mode : Constant
Bit rate : 1 510 Kbps
Channel(s) : 6 channels
Channel positions : Front: L C R, Side: L R, LFE
Sampling rate : 48.0 KHz
Bit depth : 24 bits
Compression mode : Lossy
Stream size : 959 MiB (14%)
Language : English
Menu
00:00:00.000 : en:00:00:00.000
00:05:04.304 : en:00:05:04.304
00:09:14.621 : en:00:09:14.621
00:15:01.534 : en:00:15:01.534
00:19:07.613 : en:00:19:07.613
00:24:05.644 : en:00:24:05.644
00:30:01.333 : en:00:30:01.333
00:35:43.341 : en:00:35:43.341
00:39:28.967 : en:00:39:28.967
00:43:41.686 : en:00:43:41.686
00:48:54.331 : en:00:48:54.331
00:53:38.682 : en:00:53:38.682
00:59:20.957 : en:00:59:20.957
01:05:55.351 : en:01:05:55.351
01:10:43.706 : en:01:10:43.706
01:16:07.263 : en:01:16:07.263
01:21:00.055 : en:01:21:00.055
Download / Скачать

Хотите скачать бесплатно? Зарегистрируйтесь на сайте (ссылка на регистрацию). Pirat.ca - самый быстрый торрент трекер в рунете!

Как скачивать  ·   Что такое торрент  ·   Рейтинг и ограничения

kentu158

Корсар

Пост 05-Апр-2017 16:02 (спустя 4 дня)

[Q] 

Отменная группа!!! Автору респект!!! Всем качать!!!

_________________
Не переживай о многом, и ты переживёшь многих! [img]https://nick-name.ru/forum4t3/Drause.gif[/img]
[Профиль]  [ЛС] 
Показать сообщения:    
Ответить на тему

Текущее время: Сегодня 11:03

Часовой пояс: GMT + 4



Вы не можете начинать темы
Вы не можете отвечать на сообщения
Вы не можете редактировать свои сообщения
Вы не можете удалять свои сообщения
Вы не можете голосовать в опросах
Вы не можете прикреплять файлы к сообщениям
Вы не можете скачивать файлы

Майнать ▼