Уважаемый Гость!
Вы можете поддержать проект и зарегистрироваться у наших партнеров - онлайн-стратегия MyLands. При регистрации в игре Вы получите код, который сможете активировать после регистрации на pirat.ca и получить 1000 дублонов.

Ваш код:
60d6e9c000233e14387a537701beefec023ccf6a
 
     

Asia - Symphonia - Live In Bulgaria [2013 г.] (Progressive/Art/Hard Rock) [Blu-Ray, 1080p]

Ответить на тему
 
Автор
Сообщение

Пост 15-Апр-2017 21:23

[Q] 

Дядя Вова

Гроза морей

-Asia - Symphonia - Live In Bulgaria-- Год выпуска: 2013 г.
Страна: England, UK
Жанр: Progressive/Art/Hard Rock
Продолжительность: 01:17:42-Качество видео: Blu-Ray
Контейнер: MKV
Стандарт разрешения: 1080p
Видео кодек: MPEG4 AVC
Аудио кодек: AC3
Видео: : 1 888 pixels x 1 080 pixels : 9 430 Kbps : 29.970 fps :
Аудио: : 640 Kbps : 2 channels : 48.0 KHz :-
01 Sole Survivor
02 Time Again
03 Face On The Bridge
04 My Own Time
05 Holy War
06 An Extraordinary Life
07 Days Like These
08 Open Your Eyes
09 Only Time Will Tell
10 Don't Cry
11 Heroine
12 The Smile Has Left Your Eyes
13 Wildest Dreams
14 Heat Of The Moment
General
UniqueID : 238632348708879866067176148991717365340 (0xB386EB29E14AF34DA4CDCF4F7647565C)
Complete name : H:\перадко\Asia.Symphonia.Live.In.Bulgaria.2013.2013.1080p.MBluRay.x264.mkv
Format : Matroska
File size : 5.47 GiB
Duration : 1h 17mn
Overall bit rate : 10.1 Mbps
Encoded date : UTC 2017-04-13 10:37:17
Writing application : mkvmerge v10.0.0 ('To Drown In You') 64bit
Writing library : libebml v1.3.4 + libmatroska v1.4.5
Video
ID : 1
Format : AVC
Format/Info : Advanced Video Codec
Format profile : [email protected]
Format settings, CABAC : Yes
Format settings, ReFrames : 4 frames
Codec ID : V_MPEG4/ISO/AVC
Duration : 1h 17mn
Bit rate : 9 430 Kbps
Width : 1 888 pixels
Height : 1 080 pixels
Display aspect ratio : 16:9
Frame rate : 29.970 fps
Color space : YUV
Chroma subsampling : 4:2:0
Bit depth : 8 bits
Scan type : Progressive
Bits/(Pixel*Frame) : 0.154
Stream size : 5.01 GiB (92%)
Writing library : x264 core 148 r2762 90a61ec
Encoding settings : cabac=1 / ref=4 / deblock=1:0:0 / analyse=0x3:0x133 / me=umh / subme=8 / psy=1 / psy_rd=1.00:0.00 / mixed_ref=1 / me_range=16 / chroma_me=1 / trellis=1 / 8x8dct=1 / cqm=0 / deadzone=21,11 / fast_pskip=0 / chroma_qp_offset=-2 / threads=12 / lookahead_threads=2 / sliced_threads=0 / nr=0 / decimate=1 / interlaced=0 / bluray_compat=0 / constrained_intra=0 / bframes=3 / b_pyramid=2 / b_adapt=1 / b_bias=0 / direct=1 / weightb=1 / open_gop=0 / weightp=2 / keyint=250 / keyint_min=25 / scenecut=40 / intra_refresh=0 / rc_lookahead=40 / rc=2pass / mbtree=1 / bitrate=9430 / ratetol=1.0 / qcomp=0.60 / qpmin=0 / qpmax=69 / qpstep=4 / cplxblur=20.0 / qblur=0.5 / ip_ratio=1.40 / aq=1:1.00
Language : English
Audio
ID : 2
Format : AC-3
Format/Info : Audio Coding 3
Mode extension : CM (complete main)
Codec ID : A_AC3
Duration : 1h 17mn
Bit rate mode : Constant
Bit rate : 640 Kbps
Channel(s) : 2 channels
Channel positions : Front: L R
Sampling rate : 48.0 KHz
Bit depth : 16 bits
Compression mode : Lossy
Stream size : 356 MiB (6%)
Menu
00:00:00.000 : en:00:00:00.000
00:06:07.968 : en:00:06:07.968
00:11:16.109 : en:00:11:16.109
00:17:08.728 : en:00:17:08.728
00:22:19.038 : en:00:22:19.038
00:28:26.305 : en:00:28:26.305
00:33:23.168 : en:00:33:23.168
00:37:13.264 : en:00:37:13.264
00:45:51.749 : en:00:45:51.749
00:50:55.252 : en:00:50:55.252
00:55:24.721 : en:00:55:24.721
00:59:56.860 : en:00:59:56.860
01:05:52.015 : en:01:05:52.015
01:11:12.401 : en:01:11:12.401
Download / Скачать

Хотите скачать бесплатно? Зарегистрируйтесь на сайте (ссылка на регистрацию). Pirat.ca - самый быстрый торрент трекер в рунете!

Как скачивать  ·   Что такое торрент  ·   Рейтинг и ограничения

Показать сообщения:    
Ответить на тему

Текущее время: Сегодня 15:39

Часовой пояс: GMT + 4



Вы не можете начинать темы
Вы не можете отвечать на сообщения
Вы не можете редактировать свои сообщения
Вы не можете удалять свои сообщения
Вы не можете голосовать в опросах
Вы не можете прикреплять файлы к сообщениям
Вы не можете скачивать файлы

▼ Вниз