The Beatles: 1 (1962-1970) [Remastered] [2015 г.] (Rock, Pop)BDRip[H.264/1080p]

Ответить на тему
 
Автор
Сообщение

Пост 11-Ноя-2017 09:06

[Q] 

Борей_64

Корсар

-The Beatles: 1 (1962-1970) [Remastered] BDRip-- Год выпуска: 2015 г.
Страна: Великобритания , Ливерпуль
Жанр: Rock, Pop
Продолжительность: 01:25:16-Качество видео: BDRip
Контейнер: MKV
Видео кодек: H.264/1080p
Видео: h.264 VBR | average 14.3Mbps, max 24Mbps, 1920*1080p, 29.97fps
Аудио:
PCM 2.0, 96KHz 24bit, 4608kbps
Dolby Digital 5.1, 48KHz, 448kbps
DTS96/24 5.1, 96KHz 24bit, 1510kbps-Описание:
Честно говоря, даже не знаю, что тут описывать. Рассказывать, кто такие Битлы? Слов не хватит. Для моего поколения они - кумиры. Мы, даже не видя их и не слыша их музыки, уже знали это волшебное слово - Битлс. А когда сначала услышали, а потом, много позже (с появлением видеомагнитофонов в середине 80-ых) еще и увидели, легенда стала явью. Обыкновенные люди, только жутко талантливые, и появившиеся именно в то время, когда было нужно. Это - Битлс.-
01. Love Me Do 2:25
02. From Me to You 1:56
03. She Loves You 2:23
04. I Want to Hold Your Hand 2:31
05. Can't Buy Me Love 2:10
06. A Hard Day's Night 2:39
07. I Feel Fine 2:21
08. Eight Days a Week 2:43
09. Ticket to Ride 3:08
10. Help! 2:19
11. Yesterday 2:27
12. Day Tripper 2:46
13. We Can Work It Out 2:14
14. Paperback Writer 2:26
15. Yellow Submarine 2:38
16. Eleanor Rigby 2:05
17. Penny Lane 3:03
18. All You Need Is Love 3:48
19. Hello, Goodbye 3:26
20. Lady Madonna 2:28
21. Hey Jude 7:59
22. Get Back 3:11
23. The Ballad of John and Yoko 2:59
24. Something 3:01
25. Come Together 4:19
26. Let It Be 3:55
27. The Long and Winding Road 3:38
Код:
Общее
Уникальный идентификатор                 : 177557062450909982517440913855190893088 (0x85943F1036EBE8A08EACBF07B6E78220)
Полное имя                               : D:\Фильмы\The Beatles - 1 (2015) [1080p PCM, DD, DTS].mkv
Формат                                   : Matroska
Версия формата                           : Version 4 / Version 2
Размер файла                             : 12,3 Гбайт
Продолжительность                        : 1 ч. 25 м.
Режим общего битрейта                    : Переменный
Общий поток                              : 20,7 Мбит/сек
Дата кодирования                         : UTC 2016-06-28 10:07:43
Программа кодирования                    : mkvmerge v7.8.0 ('River Man') 32bit built on Mar 27 2015 16:18:02
Библиотека кодирования                   : libebml v1.3.1 + libmatroska v1.4.2
Видео
Идентификатор                            : 1
Формат                                   : AVC
Формат/Информация                        : Advanced Video Codec
Профиль формата                          : High@L4.1
Настройки формата                        : CABAC / 3 Ref Frames
Параметр CABAC формата                   : Да
Параметр RefFrames формата               : 3 кадра
Идентификатор кодека                     : V_MPEG4/ISO/AVC
Продолжительность                        : 1 ч. 25 м.
Вид битрейта                             : Переменный
Битрейт                                  : 14,3 Мбит/сек
Максимальный битрейт                     : 24,0 Мбит/сек
Ширина                                   : 1920 пикселей
Высота                                   : 1080 пикселей
Соотношение сторон                       : 16:9
Режим частоты кадров                     : Переменный
Частота кадров                           : 29,870 кадров/сек
Частота кадров в оригинале               : 29,970 (30000/1001) кадров/сек
Стандарт вещания                         : NTSC
Цветовое пространство                    : YUV
Субдискретизация насыщенности            : 4:2:0
Битовая глубина                          : 8 бит
Тип развёртки                            : Прогрессивная
Бит/(Пиксели*Кадры)                      : 0.231
Размер потока                            : 8,42 Гбайт (68%)
Заголовок                                : VBR | 14.3Mbps(max24Mbps), 1920*1080p, 29.97fps, AVC (High@L4.1)
Библиотека кодирования                   : x264 core 114
Настройки программы                      : cabac=1 / ref=3 / deblock=1:0:0 / analyse=0x3:0x113 / me=hex / subme=4 / psy=1 / psy_rd=0.00:0.00 / mixed_ref=0 / me_range=16 / chroma_me=1 / trellis=1 / 8x8dct=1 / cqm=2 / deadzone=21,11 / fast_pskip=1 / chroma_qp_offset=0 / threads=6 / sliced_threads=0 / slices=1 / nr=0 / decimate=1 / interlaced=0 / constrained_intra=0 / bframes=3 / b_pyramid=0 / b_adapt=1 / b_bias=0 / direct=1 / weightb=1 / open_gop=0 / weightp=1 / keyint=250 / keyint_min=25 / scenecut=0 / intra_refresh=0 / rc_lookahead=20 / rc=2pass / mbtree=1 / bitrate=14333 / ratetol=1.0 / qcomp=0.60 / qpmin=1 / qpmax=69 / qpstep=4 / cplxblur=20.0 / qblur=0.5 / vbv_maxrate=24000 / vbv_bufsize=23986 / nal_hrd=vbr / ip_ratio=1.40 / aq=1:1.00
Default                                  : Да
Forced                                   : Нет
Цветовой диапазон                        : Limited
Основные цвета                           : BT.709
Характеристики трансфера                 : BT.709
Коэффициенты матрицы                     : BT.709
Аудио #1
Идентификатор                            : 2
Формат                                   : PCM
Идентификатор кодека                     : A_PCM/INT/LIT
Продолжительность                        : 1 ч. 25 м.
Вид битрейта                             : Постоянный
Битрейт                                  : 4608 Кбит/сек
Каналы                                   : 2 канала
Частота                                  : 96,0 КГц
Частота кадров                           : 31,998 кадра/сек (3000 SPF)
Битовая глубина                          : 24 бит
Размер потока                            : 2,74 Гбайт (22%)
Заголовок                                : PCM 2.0, 96kHz 24bit, 4608kbps
Язык                                     : English
Default                                  : Да
Forced                                   : Нет
Аудио #2
Идентификатор                            : 3
Формат                                   : AC-3
Формат/Информация                        : Audio Coding 3
Идентификатор кодека                     : A_AC3
Продолжительность                        : 1 ч. 25 м.
Вид битрейта                             : Постоянный
Битрейт                                  : 448 Кбит/сек
Каналы                                   : 6 каналов
Расположение каналов                     : Front: L C R, Side: L R, LFE
Частота                                  : 48,0 КГц
Частота кадров                           : 31,250 кадров/сек (1536 SPF)
Битовая глубина                          : 16 бит
Метод сжатия                             : С потерями
Размер потока                            : 273 Мбайт (2%)
Заголовок                                : Dolby Digital 5.1, 48KHz
Язык                                     : English
ServiceKind/String                       : Complete Main
Default                                  : Нет
Forced                                   : Нет
Аудио #3
Идентификатор                            : 4
Формат                                   : DTS
Формат/Информация                        : Digital Theater Systems
Профиль формата                          : 96/24 / Core
Идентификатор кодека                     : A_DTS
Продолжительность                        : 1 ч. 25 м.
Вид битрейта                             : Постоянный
Битрейт                                  : 1510 Кбит/сек
Каналы                                   : 6 каналов
Расположение каналов                     : Front: L C R, Side: L R, LFE
Частота                                  : 96,0 КГц / 48,0 КГц
Частота кадров                           : 93,750 кадра/сек (512 SPF)
Битовая глубина                          : 24 бит
Метод сжатия                             : С потерями
Размер потока                            : 921 Мбайт (7%)
Заголовок                                : DTS96/24 5.1, 96kHz 24bit
Язык                                     : English
Default                                  : Нет
Forced                                   : Нет
Меню
00:00:00.000                             : en:(1962) "Love Me Do"
00:02:32.451                             : en:(1963) "From Me to You"
00:04:36.009                             : en:(1963) "She Loves You"
00:07:06.759                             : en:(1963) "I Want to Hold Your Hand"
00:09:45.317                             : en:(1964) "Can't Buy Me Love"
00:12:02.554                             : en:(1964) "A Hard Day's Night"
00:14:49.696                             : en:(1964) "I Feel Fine"
00:17:17.884                             : en:(1965) "Eight Days a Week"
00:20:10.348                             : en:(1965) "Ticket to Ride"
00:23:25.294                             : en:(1965) "Help!"
00:25:52.856                             : en:(1965) "Yesterday "
00:28:27.111                             : en:(1965) "Day Tripper"
00:31:21.209                             : en:(1965) "We Can Work It Out"
00:33:43.865                             : en:(1966) "Paperback Writer"
00:36:16.952                             : en:(1966) "Yellow Submarine"
00:39:02.784                             : en:(1966) "Eleanor Rigby"
00:41:15.458                             : en:(1967) "Penny Lane"
00:44:26.875                             : en:(1967) "All You Need Is Love"
00:48:22.277                             : en:(1967) "Hello, Goodbye"
00:51:57.179                             : en:(1968) "Lady Madonna"
00:54:43.675                             : en:(1968) "Hey Jude"
01:02:51.099                             : en:(1969) "Get Back"
01:06:18.907                             : en:(1969) "The Ballad of John and Yoko"
01:09:26.139                             : en:(1969) "Something"
01:12:35.930                             : en:(1969) "Come Together"
01:17:02.939                             : en:(1970) "Let It Be"
01:21:05.681                             : en:(1970) "The Long and Winding Road"
01:24:53.241                             : en:(2016) - "Credits"
The Beatles “1” was originally released in 2000 and quickly became the fastest selling album of all time. Featuring 27 of the band’s most significant singles, all of which reached #1 in the US or UK charts, this brand new 2Blu-ray/CD set represents the ultimate collectors edition of The Beatles “1”, featuring all 27 tracks on CD, all 27 promo videos on Blu-ray1, and an additional 23 videos on Blu-ray2, including alternate versions, as well as rarely seen and newly restored films and videos.
All the videos have been beautifully restored up to 4K resolution by a team of film and video technicians and restoration artists who have undertaken painstaking frame-by-frame cleaning, colour-grading, digital enhancement and new edits that took months of dedicated, ‘round-the-clock work to accomplish.
This stunning 2Blu-ray/CD set boasts an expanded 124-page illustrated hardcover book, and also includes exclusive audio commentary and filmed introductions by Paul McCartney and Ringo Starr respectively. 1+ also features fantastic new stereo and 5.1 Dolby Digital and DTS HD surround audio mixes by Giles Martin and Sam Okell at Abbey Road Studios.
CD/Blu-ray1 songs and videos include: Love Me Do, I Want To Hold Your Hand, Can’t Buy Me Love, I Feel Fine, Ticket To Ride, Yesterday, Day Tripper, We Can Work It Out, Paperback Writer, Penny Lane, All You Need Is Love, Hey Jude, Something, Come Together, and more!
Blu-ray2 videos include: Twist & Shout, Please Please Me, Rain, Strawberry Fields Forever, A Day In The Life, Hey Bulldog, and Free As A Bird
Download / Скачать

Хотите скачать бесплатно? Зарегистрируйтесь на сайте (ссылка на регистрацию). Pirat.ca - самый быстрый торрент трекер в рунете!

Как скачивать  ·   Что такое торрент  ·   Рейтинг и ограничения

pacco

Корсар

Пост 11-Ноя-2017 10:36 (спустя 1 час 29 минут)

[Q] 

спасибо! Супер!
[Профиль]  [ЛС] 
Показать сообщения:    
Ответить на тему

Текущее время: Сегодня 11:59

Часовой пояс: GMT + 4



Вы не можете начинать темы
Вы не можете отвечать на сообщения
Вы не можете редактировать свои сообщения
Вы не можете удалять свои сообщения
Вы не можете голосовать в опросах
Вы не можете прикреплять файлы к сообщениям
Вы не можете скачивать файлы

Майнать ▼