AC/DC (ACDC) - Family Jewels [2005] (Hard Rock) [2xDVD9, DVD Video]

Ответить на тему
 
Автор
Сообщение

Пост 29-Апр-2012 00:09

[Q] 

kufre

Корсар

- -AC/DC (ACDC) - Family Jewels
Год выпуска: 2005
Страна: Австралия
Жанр: Hard Rock
Студия: Epic Music Video
Продолжительность: 01:30:38 + 01:28:31
Источник/Качество: DVD9
Формат: DVD Video
Видео кодек: MPEG2
Аудио кодек: PCM
Видео: 720х480 (4:3) 29.970 fps, MPEG Video (NTSC) (Version 2)~7000 kbps
Аудио: English 48 kHz,16 бит, 2 ch, ~1536 kbps avg, PCM (DVD-Video)
Описание
Царский подарок всем любителями настоящего рока - 40 музыкальных видео AC/ DC, раскинувшихся на двух DVD. Первый диск включает песни, записанные с Боном Скоттом, второй - вещи с вокалом Брайана Джонсона. Хронология DVD охватывает два десятка лет, в течении которых появились величайшие хиты группы, представленные на сборнике в полном объеме
DVD 1 (1975 - 1980)
Tracklist
01. Baby Please Don't Go (live, April 1975)
02. Show Business (live, June 1975)
03. High Voltage (promo clip, June 1975)
04. It's A Long Way To The Top (promo clip, February 1976)
05. T.N.T. (live, 1976)
06. Jailbreak (promo clip 1976)
07. Dirty Deeds Done Dirt Cheap (live, December 1976)
08. Dog Eat Dog (promo clip, 1977)
09. Let There Be Rock (promo clip, 1977)
10. Rock N Roll Damnation (promo clip, 1978)
11. Sin City (from The Midnight Special, September 1978)
12. Riff Raff (live from Glascow, April 1978)
13. Fling Thing/Rocker (live from Glascow, April 1978)
14. Whole Lotta Rosie (Iive from BBC show "Rock Goes To College", October 1978)
15. Shot Down In Flames (promo clip, July 1979)
16. Walk All Over You (promo clip, July 1979)
17. Touch Too Much (promo clip July 1979)
18. If You Want Blood (promo clip, July 1979)
19. Girls Got Rhythm (live from Aplauso TV Show, February 1980)
20. Highway To Hell (live from Aplauso TV Show, February 1980)
DVD 2 (1980 -1993)
Tracklist
01. Hells Bells (promo clip, 1980)
02. Back In Black (promo clip, 1980)
03. What Do You Do For Money Honey (promo clip, 1980)
04. Rock And Roll Ain’t Noise Pollution (promo clip, 1980)
05. Let's Get it Up (live promo clip, 1981)
06. For Those About To Rock (live promo clip, 1983)
07. Flick Of The Switch (promo clip, 1984)
08. Nervous Shakedown (promo clip, 1984)
09. Fly On The Wall (promo clip, 1985)
10. Danger (promo clip, 1985)
11. Sink The Pink (promo clip, 1985)
12. Stand Up (promo clip, 1985)
13. Shake Your Foundations (promo clip, 1985)
14. Who Made Who (promo clip, 1986)
15. You Shook Me All Night Long (promo clip, 1985)
16. Heatseeker (promo clip, 1988)
17. That's The Way I Wanna Rock & Roll (promo clip, 1988)
18. Thunderstruck (promo clip, 1990)
19. Moneytalks (promo clip, 1990)
20. Are You Ready (promo clip, 1991)
Формат : DVD Video
Профиль формата : Menu
Размер файла : 18,0 Кбайт
Видео
Идентификатор : 224 (0xE0)
Формат : MPEG Video
Версия формата : Version 2
Вид битрейта : Переменный
Ширина : 720 пикс.
Высота : 480 пикс.
Соотношение сторон : 4:3
Частота кадров : 29,970 кадр/сек
Стандарт вещания : NTSC
Метод сжатия : С потерями
Текст
Формат : RLE
Формат/Информация : Run-length encoding
Битовая глубина : 2 бит
Общее
Полное имя : F:\ШАРА F\CLIPS\AC-DC - Family Jewels\Disc 1 DVD-9 Bon Scott\VIDEO_TS\VIDEO_TS.IFO
Формат : DVD Video
Профиль формата : Menu
Размер файла : 18,0 Кбайт
Видео
Идентификатор : 224 (0xE0)
Формат : MPEG Video
Версия формата : Version 2
Вид битрейта : Переменный
Ширина : 720 пикс.
Высота : 480 пикс.
Соотношение сторон : 4:3
Частота кадров : 29,970 кадр/сек
Стандарт вещания : NTSC
Метод сжатия : С потерями
Текст
Формат : RLE
Формат/Информация : Run-length encoding
Битовая глубина : 2 бит
Общее
Полное имя : F:\ШАРА F\CLIPS\AC-DC - Family Jewels\Disc 1 DVD-9 Bon Scott\VIDEO_TS\VIDEO_TS.VOB
Формат : MPEG-PS
Размер файла : 114 Кбайт
Продолжительность : 400 мс.
Общий поток : 2335 Кбит/сек
Видео
Идентификатор : 224 (0xE0)
Формат : MPEG Video
Версия формата : Version 2
Профиль формата : Main@Main
Параметр BVOP формата : Да
Параметр матрицы формата : Выборочная
Продолжительность : 400 мс.
Максимальный битрейт : 2000 Кбит/сек
Ширина : 720 пикс.
Высота : 480 пикс.
Соотношение сторон : 4:3
Частота кадров : 29,970 кадр/сек
Стандарт вещания : NTSC
Цветовое пространство : YUV
Подвыборка цветности : 4:2:0
Битовая глубина : 8 бит
Тип развёртки : Чересстрочная
Порядок развёртки : Верхнее поле первое
Метод сжатия : С потерями
Текст
Идентификатор : 189 (0xBD)-32 (0x20)
Формат : RLE
Формат/Информация : Run-length encoding
Режим смешивания : DVD-Video
Задержка видео : -66 мс.
Меню
Общее
Полное имя : F:\ШАРА F\CLIPS\AC-DC - Family Jewels\Disc 1 DVD-9 Bon Scott\VIDEO_TS\VTS_01_0.BUP
Формат : DVD Video
Профиль формата : Program
Размер файла : 26,0 Кбайт
Продолжительность : 20 с.
Общий поток : 10,6 Кбит/сек
Видео
Идентификатор : 224 (0xE0)
Формат : MPEG Video
Версия формата : Version 2
Продолжительность : 20 с.
Вид битрейта : Переменный
Ширина : 720 пикс.
Высота : 480 пикс.
Соотношение сторон : 4:3
Частота кадров : 29,970 кадр/сек
Стандарт вещания : NTSC
Метод сжатия : С потерями
Аудио #1
Идентификатор : 0 (0x0)
Формат : PCM
Продолжительность : 20 с.
Каналы : 2 канала
Частота : 48,0 КГц
Язык : English
Аудио #2
Формат : AC-3
Формат/Информация : Audio Coding 3
Продолжительность : 20 с.
Каналы : 6 каналов
Частота : 48,0 КГц
Метод сжатия : С потерями
Язык : English
Аудио #3
Формат : AC-3
Формат/Информация : Audio Coding 3
Продолжительность : 20 с.
Каналы : 6 каналов
Частота : 48,0 КГц
Метод сжатия : С потерями
Язык : English
Аудио #4
Формат : AC-3
Формат/Информация : Audio Coding 3
Продолжительность : 20 с.
Каналы : 6 каналов
Частота : 48,0 КГц
Метод сжатия : С потерями
Язык : English
Аудио #5
Формат : AC-3
Формат/Информация : Audio Coding 3
Продолжительность : 20 с.
Каналы : 6 каналов
Частота : 48,0 КГц
Метод сжатия : С потерями
Язык : English
Аудио #6
Формат : AC-3
Формат/Информация : Audio Coding 3
Продолжительность : 20 с.
Каналы : 6 каналов
Частота : 48,0 КГц
Метод сжатия : С потерями
Язык : English
Аудио #7
Формат : AC-3
Формат/Информация : Audio Coding 3
Продолжительность : 20 с.
Каналы : 6 каналов
Частота : 48,0 КГц
Метод сжатия : С потерями
Язык : English
Аудио #8
Формат : AC-3
Формат/Информация : Audio Coding 3
Продолжительность : 20 с.
Каналы : 6 каналов
Частота : 48,0 КГц
Метод сжатия : С потерями
Язык : English
Текст #1
Формат : RLE
Формат/Информация : Run-length encoding
Битовая глубина : 2 бит
Текст #2
Формат : RLE
Формат/Информация : Run-length encoding
Битовая глубина : 2 бит
Текст #3
Формат : RLE
Формат/Информация : Run-length encoding
Битовая глубина : 2 бит
Текст #4
Формат : RLE
Формат/Информация : Run-length encoding
Битовая глубина : 2 бит
Текст #5
Формат : RLE
Формат/Информация : Run-length encoding
Битовая глубина : 2 бит
Текст #6
Формат : RLE
Формат/Информация : Run-length encoding
Битовая глубина : 2 бит
Текст #7
Формат : RLE
Формат/Информация : Run-length encoding
Битовая глубина : 2 бит
Текст #8
Формат : RLE
Формат/Информация : Run-length encoding
Битовая глубина : 2 бит
Текст #9
Формат : RLE
Формат/Информация : Run-length encoding
Битовая глубина : 2 бит
Текст #10
Формат : RLE
Формат/Информация : Run-length encoding
Битовая глубина : 2 бит
Текст #11
Формат : RLE
Формат/Информация : Run-length encoding
Битовая глубина : 2 бит
Текст #12
Формат : RLE
Формат/Информация : Run-length encoding
Битовая глубина : 2 бит
Текст #13
Формат : RLE
Формат/Информация : Run-length encoding
Битовая глубина : 2 бит
Текст #14
Формат : RLE
Формат/Информация : Run-length encoding
Битовая глубина : 2 бит
Текст #15
Формат : RLE
Формат/Информация : Run-length encoding
Битовая глубина : 2 бит
Текст #16
Формат : RLE
Формат/Информация : Run-length encoding
Битовая глубина : 2 бит
Текст #17
Формат : RLE
Формат/Информация : Run-length encoding
Битовая глубина : 2 бит
Текст #18
Формат : RLE
Формат/Информация : Run-length encoding
Битовая глубина : 2 бит
Текст #19
Формат : RLE
Формат/Информация : Run-length encoding
Битовая глубина : 2 бит
Текст #20
Формат : RLE
Формат/Информация : Run-length encoding
Битовая глубина : 2 бит
Текст #21
Формат : RLE
Формат/Информация : Run-length encoding
Битовая глубина : 2 бит
Текст #22
Формат : RLE
Формат/Информация : Run-length encoding
Битовая глубина : 2 бит
Текст #23
Формат : RLE
Формат/Информация : Run-length encoding
Битовая глубина : 2 бит
Текст #24
Формат : RLE
Формат/Информация : Run-length encoding
Битовая глубина : 2 бит
Текст #25
Формат : RLE
Формат/Информация : Run-length encoding
Битовая глубина : 2 бит
Текст #26
Формат : RLE
Формат/Информация : Run-length encoding
Битовая глубина : 2 бит
Текст #27
Формат : RLE
Формат/Информация : Run-length encoding
Битовая глубина : 2 бит
Текст #28
Формат : RLE
Формат/Информация : Run-length encoding
Битовая глубина : 2 бит
Текст #29
Формат : RLE
Формат/Информация : Run-length encoding
Битовая глубина : 2 бит
Текст #30
Формат : RLE
Формат/Информация : Run-length encoding
Битовая глубина : 2 бит
Текст #31
Формат : RLE
Формат/Информация : Run-length encoding
Битовая глубина : 2 бит
Текст #32
Формат : RLE
Формат/Информация : Run-length encoding
Битовая глубина : 2 бит
Меню
Продолжительность : 20 с.
00:00:00.000 : Chapter 1
List (Audio) : 0
Общее
Полное имя : F:\ШАРА F\CLIPS\AC-DC - Family Jewels\Disc 1 DVD-9 Bon Scott\VIDEO_TS\VTS_01_0.IFO
Формат : DVD Video
Профиль формата : Program
Размер файла : 26,0 Кбайт
Продолжительность : 20 с.
Общий поток : 10,6 Кбит/сек
Видео
Идентификатор : 224 (0xE0)
Формат : MPEG Video
Версия формата : Version 2
Продолжительность : 20 с.
Вид битрейта : Переменный
Ширина : 720 пикс.
Высота : 480 пикс.
Соотношение сторон : 4:3
Частота кадров : 29,970 кадр/сек
Стандарт вещания : NTSC
Метод сжатия : С потерями
Аудио #1
Идентификатор : 0 (0x0)
Формат : PCM
Продолжительность : 20 с.
Каналы : 2 канала
Частота : 48,0 КГц
Язык : English
Аудио #2
Формат : AC-3
Формат/Информация : Audio Coding 3
Продолжительность : 20 с.
Каналы : 6 каналов
Частота : 48,0 КГц
Метод сжатия : С потерями
Язык : English
Аудио #3
Формат : AC-3
Формат/Информация : Audio Coding 3
Продолжительность : 20 с.
Каналы : 6 каналов
Частота : 48,0 КГц
Метод сжатия : С потерями
Язык : English
Аудио #4
Формат : AC-3
Формат/Информация : Audio Coding 3
Продолжительность : 20 с.
Каналы : 6 каналов
Частота : 48,0 КГц
Метод сжатия : С потерями
Язык : English
Аудио #5
Формат : AC-3
Формат/Информация : Audio Coding 3
Продолжительность : 20 с.
Каналы : 6 каналов
Частота : 48,0 КГц
Метод сжатия : С потерями
Язык : English
Аудио #6
Формат : AC-3
Формат/Информация : Audio Coding 3
Продолжительность : 20 с.
Каналы : 6 каналов
Частота : 48,0 КГц
Метод сжатия : С потерями
Язык : English
Аудио #7
Формат : AC-3
Формат/Информация : Audio Coding 3
Продолжительность : 20 с.
Каналы : 6 каналов
Частота : 48,0 КГц
Метод сжатия : С потерями
Язык : English
Аудио #8
Формат : AC-3
Формат/Информация : Audio Coding 3
Продолжительность : 20 с.
Каналы : 6 каналов
Частота : 48,0 КГц
Метод сжатия : С потерями
Язык : English
Текст #1
Формат : RLE
Формат/Информация : Run-length encoding
Битовая глубина : 2 бит
Текст #2
Формат : RLE
Формат/Информация : Run-length encoding
Битовая глубина : 2 бит
Текст #3
Формат : RLE
Формат/Информация : Run-length encoding
Битовая глубина : 2 бит
Текст #4
Формат : RLE
Формат/Информация : Run-length encoding
Битовая глубина : 2 бит
Текст #5
Формат : RLE
Формат/Информация : Run-length encoding
Битовая глубина : 2 бит
Текст #6
Формат : RLE
Формат/Информация : Run-length encoding
Битовая глубина : 2 бит
Текст #7
Формат : RLE
Формат/Информация : Run-length encoding
Битовая глубина : 2 бит
Текст #8
Формат : RLE
Формат/Информация : Run-length encoding
Битовая глубина : 2 бит
Текст #9
Формат : RLE
Формат/Информация : Run-length encoding
Битовая глубина : 2 бит
Текст #10
Формат : RLE
Формат/Информация : Run-length encoding
Битовая глубина : 2 бит
Текст #11
Формат : RLE
Формат/Информация : Run-length encoding
Битовая глубина : 2 бит
Текст #12
Формат : RLE
Формат/Информация : Run-length encoding
Битовая глубина : 2 бит
Текст #13
Формат : RLE
Формат/Информация : Run-length encoding
Битовая глубина : 2 бит
Текст #14
Формат : RLE
Формат/Информация : Run-length encoding
Битовая глубина : 2 бит
Текст #15
Формат : RLE
Формат/Информация : Run-length encoding
Битовая глубина : 2 бит
Текст #16
Формат : RLE
Формат/Информация : Run-length encoding
Битовая глубина : 2 бит
Текст #17
Формат : RLE
Формат/Информация : Run-length encoding
Битовая глубина : 2 бит
Текст #18
Формат : RLE
Формат/Информация : Run-length encoding
Битовая глубина : 2 бит
Текст #19
Формат : RLE
Формат/Информация : Run-length encoding
Битовая глубина : 2 бит
Текст #20
Формат : RLE
Формат/Информация : Run-length encoding
Битовая глубина : 2 бит
Текст #21
Формат : RLE
Формат/Информация : Run-length encoding
Битовая глубина : 2 бит
Текст #22
Формат : RLE
Формат/Информация : Run-length encoding
Битовая глубина : 2 бит
Текст #23
Формат : RLE
Формат/Информация : Run-length encoding
Битовая глубина : 2 бит
Текст #24
Формат : RLE
Формат/Информация : Run-length encoding
Битовая глубина : 2 бит
Текст #25
Формат : RLE
Формат/Информация : Run-length encoding
Битовая глубина : 2 бит
Текст #26
Формат : RLE
Формат/Информация : Run-length encoding
Битовая глубина : 2 бит
Текст #27
Формат : RLE
Формат/Информация : Run-length encoding
Битовая глубина : 2 бит
Текст #28
Формат : RLE
Формат/Информация : Run-length encoding
Битовая глубина : 2 бит
Текст #29
Формат : RLE
Формат/Информация : Run-length encoding
Битовая глубина : 2 бит
Текст #30
Формат : RLE
Формат/Информация : Run-length encoding
Битовая глубина : 2 бит
Текст #31
Формат : RLE
Формат/Информация : Run-length encoding
Битовая глубина : 2 бит
Текст #32
Формат : RLE
Формат/Информация : Run-length encoding
Битовая глубина : 2 бит
Меню
Продолжительность : 20 с.
00:00:00.000 : Chapter 1
List (Audio) : 0
Общее
Полное имя : F:\ШАРА F\CLIPS\AC-DC - Family Jewels\Disc 1 DVD-9 Bon Scott\VIDEO_TS\VTS_01_0.VOB
Формат : MPEG-PS
Размер файла : 100,0 Мбайт
Продолжительность : 31 с.
Общий поток : 26,5 Мбит/сек
Видео
Идентификатор : 224 (0xE0)
Формат : MPEG Video
Версия формата : Version 2
Профиль формата : Main@Main
Параметр BVOP формата : Да
Параметр матрицы формата : Выборочная
Продолжительность : 31 с.
Вид битрейта : Переменный
Битрейт : 24,4 Мбит/сек
Максимальный битрейт : 8254 Кбит/сек
Ширина : 720 пикс.
Высота : 480 пикс.
Соотношение сторон : 4:3
Частота кадров : 29,970 кадр/сек
Стандарт вещания : NTSC
Цветовое пространство : YUV
Подвыборка цветности : 4:2:0
Битовая глубина : 8 бит
Тип развёртки : Чересстрочная
Порядок развёртки : Верхнее поле первое
Метод сжатия : С потерями
Бит/(Пиксели*Кадры) : 2.358
Размер потока : 92,2 Мбайт (92%)
Аудио
Идентификатор : 189 (0xBD)-160 (0xA0)
Формат : PCM
Параметр Endianness формата : Big
Параметр Sign формата : Signed
Режим смешивания : DVD-Video
Продолжительность : 31 с.
Вид битрейта : Постоянный
Битрейт : 1536 Кбит/сек
Каналы : 2 канала
Расположение каналов : Front: L R
Частота : 48,0 КГц
Битовая глубина : 16 бит
Размер потока : 5,79 Мбайт (6%)
Текст
Идентификатор : 189 (0xBD)-32 (0x20)
Формат : RLE
Формат/Информация : Run-length encoding
Режим смешивания : DVD-Video
Меню
Общее
Полное имя : F:\ШАРА F\CLIPS\AC-DC - Family Jewels\Disc 1 DVD-9 Bon Scott\VIDEO_TS\VTS_01_1.VOB
Формат : MPEG-PS
Размер файла : 18,6 Мбайт
Продолжительность : 20 с.
Общий поток : 7806 Кбит/сек
Видео
Идентификатор : 224 (0xE0)
Формат : MPEG Video
Версия формата : Version 2
Профиль формата : Main@Main
Параметр BVOP формата : Да
Параметр матрицы формата : Выборочная
Параметры GOP формата : M=3, N=15
Продолжительность : 19 с.
Вид битрейта : Переменный
Битрейт : 6114 Кбит/сек
Максимальный битрейт : 8500 Кбит/сек
Ширина : 720 пикс.
Высота : 480 пикс.
Соотношение сторон : 4:3
Частота кадров : 29,970 кадр/сек
Стандарт вещания : NTSC
Цветовое пространство : YUV
Подвыборка цветности : 4:2:0
Битовая глубина : 8 бит
Тип развёртки : Чересстрочная
Порядок развёртки : Верхнее поле первое
Метод сжатия : С потерями
Бит/(Пиксели*Кадры) : 0.590
Размер потока : 14,6 Мбайт (78%)
Аудио
Идентификатор : 189 (0xBD)-160 (0xA0)
Формат : PCM
Параметр Endianness формата : Big
Параметр Sign формата : Signed
Режим смешивания : DVD-Video
Продолжительность : 20 с.
Вид битрейта : Постоянный
Битрейт : 1536 Кбит/сек
Каналы : 2 канала
Расположение каналов : Front: L R
Частота : 48,0 КГц
Битовая глубина : 16 бит
Задержка видео : -66 мс.
Размер потока : 3,67 Мбайт (20%)
Меню
Общее
Полное имя : F:\ШАРА F\CLIPS\AC-DC - Family Jewels\Disc 1 DVD-9 Bon Scott\VIDEO_TS\VTS_02_0.BUP
Формат : DVD Video
Профиль формата : Program
Размер файла : 68,0 Кбайт
Продолжительность : 1 ч. 30 м.
Общий поток : 102 бит/сек
Видео
Идентификатор : 224 (0xE0)
Формат : MPEG Video
Версия формата : Version 2
Продолжительность : 1 ч. 30 м.
Вид битрейта : Переменный
Ширина : 720 пикс.
Высота : 480 пикс.
Соотношение сторон : 4:3
Частота кадров : 29,970 кадр/сек
Стандарт вещания : NTSC
Метод сжатия : С потерями
Аудио
Идентификатор : 0 (0x0)
Формат : PCM
Продолжительность : 1 ч. 30 м.
Каналы : 2 канала
Частота : 48,0 КГц
Язык : English
Меню
Продолжительность : 1 ч. 30 м.
00:00:00.000 : Chapter 1
00:03:59.366 : Chapter 2
00:08:33.966 : Chapter 3
00:12:44.599 : Chapter 4
00:18:03.499 : Chapter 5
00:21:34.499 : Chapter 6
00:25:49.565 : Chapter 7
00:29:55.965 : Chapter 8
00:33:18.431 : Chapter 9
00:39:29.231 : Chapter 10
00:42:36.231 : Chapter 11
00:47:31.197 : Chapter 12
00:53:01.163 : Chapter 13
01:00:07.696 : Chapter 14
01:05:33.462 : Chapter 15
01:09:04.262 : Chapter 16
01:14:20.028 : Chapter 17
01:18:51.928 : Chapter 18
01:23:25.794 : Chapter 19
01:26:52.060 : Chapter 20
01:30:32.626 : Chapter 21
List (Audio) : 0
Общее
Полное имя : F:\ШАРА F\CLIPS\AC-DC - Family Jewels\Disc 1 DVD-9 Bon Scott\VIDEO_TS\VTS_02_0.IFO
Формат : DVD Video
Профиль формата : Program
Размер файла : 68,0 Кбайт
Продолжительность : 1 ч. 30 м.
Общий поток : 102 бит/сек
Видео
Идентификатор : 224 (0xE0)
Формат : MPEG Video
Версия формата : Version 2
Продолжительность : 1 ч. 30 м.
Вид битрейта : Переменный
Ширина : 720 пикс.
Высота : 480 пикс.
Соотношение сторон : 4:3
Частота кадров : 29,970 кадр/сек
Стандарт вещания : NTSC
Метод сжатия : С потерями
Аудио
Идентификатор : 0 (0x0)
Формат : PCM
Продолжительность : 1 ч. 30 м.
Каналы : 2 канала
Частота : 48,0 КГц
Язык : English
Меню
Продолжительность : 1 ч. 30 м.
00:00:00.000 : Chapter 1
00:03:59.366 : Chapter 2
00:08:33.966 : Chapter 3
00:12:44.599 : Chapter 4
00:18:03.499 : Chapter 5
00:21:34.499 : Chapter 6
00:25:49.565 : Chapter 7
00:29:55.965 : Chapter 8
00:33:18.431 : Chapter 9
00:39:29.231 : Chapter 10
00:42:36.231 : Chapter 11
00:47:31.197 : Chapter 12
00:53:01.163 : Chapter 13
01:00:07.696 : Chapter 14
01:05:33.462 : Chapter 15
01:09:04.262 : Chapter 16
01:14:20.028 : Chapter 17
01:18:51.928 : Chapter 18
01:23:25.794 : Chapter 19
01:26:52.060 : Chapter 20
01:30:32.626 : Chapter 21
List (Audio) : 0
Общее
Полное имя : F:\ШАРА F\CLIPS\AC-DC - Family Jewels\Disc 1 DVD-9 Bon Scott\VIDEO_TS\VTS_02_0.VOB
Формат : MPEG-PS
Размер файла : 114 Кбайт
Продолжительность : 400 мс.
Общий поток : 2335 Кбит/сек
Видео
Идентификатор : 224 (0xE0)
Формат : MPEG Video
Версия формата : Version 2
Профиль формата : Main@Main
Параметр BVOP формата : Да
Параметр матрицы формата : Выборочная
Продолжительность : 400 мс.
Максимальный битрейт : 2000 Кбит/сек
Ширина : 720 пикс.
Высота : 480 пикс.
Соотношение сторон : 4:3
Частота кадров : 29,970 кадр/сек
Стандарт вещания : NTSC
Цветовое пространство : YUV
Подвыборка цветности : 4:2:0
Битовая глубина : 8 бит
Тип развёртки : Чересстрочная
Порядок развёртки : Верхнее поле первое
Метод сжатия : С потерями
Текст
Идентификатор : 189 (0xBD)-32 (0x20)
Формат : RLE
Формат/Информация : Run-length encoding
Режим смешивания : DVD-Video
Задержка видео : -66 мс.
Меню
Общее
Полное имя : F:\ШАРА F\CLIPS\AC-DC - Family Jewels\Disc 1 DVD-9 Bon Scott\VIDEO_TS\VTS_02_1.VOB
Формат : MPEG-PS
Размер файла : 1024 Мбайт
Продолжительность : 16 м.
Общий поток : 8709 Кбит/сек
Видео
Идентификатор : 224 (0xE0)
Формат : MPEG Video
Версия формата : Version 2
Профиль формата : Main@Main
Параметр BVOP формата : Да
Параметр матрицы формата : Выборочная
Продолжительность : 16 м.
Вид битрейта : Переменный
Битрейт : 7000 Кбит/сек
Максимальный битрейт : 8264 Кбит/сек
Ширина : 720 пикс.
Высота : 480 пикс.
Соотношение сторон : 4:3
Частота кадров : 29,970 кадр/сек
Стандарт вещания : NTSC
Цветовое пространство : YUV
Подвыборка цветности : 4:2:0
Битовая глубина : 8 бит
Тип развёртки : Чересстрочная
Порядок развёртки : Верхнее поле первое
Метод сжатия : С потерями
Бит/(Пиксели*Кадры) : 0.676
Размер потока : 823 Мбайт (80%)
Аудио
Идентификатор : 189 (0xBD)-160 (0xA0)
Формат : PCM
Параметр Endianness формата : Big
Параметр Sign формата : Signed
Режим смешивания : DVD-Video
Продолжительность : 16 м.
Вид битрейта : Постоянный
Битрейт : 1536 Кбит/сек
Каналы : 2 канала
Расположение каналов : Front: L R
Частота : 48,0 КГц
Битовая глубина : 16 бит
Размер потока : 181 Мбайт (18%)
Меню
Общее
Полное имя : F:\ШАРА F\CLIPS\AC-DC - Family Jewels\Disc 1 DVD-9 Bon Scott\VIDEO_TS\VTS_02_2.VOB
Формат : MPEG-PS
Размер файла : 1024 Мбайт
Продолжительность : 15 м.
Общий поток : 8971 Кбит/сек
Видео
Идентификатор : 224 (0xE0)
Формат : MPEG Video
Версия формата : Version 2
Профиль формата : Main@Main
Параметр BVOP формата : Да
Параметр матрицы формата : Выборочная
Параметры GOP формата : M=3, N=15
Продолжительность : 15 м.
Вид битрейта : Переменный
Битрейт : 7256 Кбит/сек
Максимальный битрейт : 8264 Кбит/сек
Ширина : 720 пикс.
Высота : 480 пикс.
Соотношение сторон : 4:3
Частота кадров : 29,970 кадр/сек
Стандарт вещания : NTSC
Цветовое пространство : YUV
Подвыборка цветности : 4:2:0
Битовая глубина : 8 бит
Тип развёртки : Чересстрочная
Порядок развёртки : Верхнее поле первое
Метод сжатия : С потерями
Бит/(Пиксели*Кадры) : 0.701
Размер потока : 828 Мбайт (81%)
Аудио
Идентификатор : 189 (0xBD)-160 (0xA0)
Формат : PCM
Параметр Endianness формата : Big
Параметр Sign формата : Signed
Режим смешивания : DVD-Video
Продолжительность : 15 м.
Вид битрейта : Постоянный
Битрейт : 1536 Кбит/сек
Каналы : 2 канала
Расположение каналов : Front: L R
Частота : 48,0 КГц
Битовая глубина : 16 бит
Задержка видео : -592 мс.
Размер потока : 175 Мбайт (17%)
Меню
Общее
Полное имя : F:\ШАРА F\CLIPS\AC-DC - Family Jewels\Disc 1 DVD-9 Bon Scott\VIDEO_TS\VTS_02_3.VOB
Формат : MPEG-PS
Размер файла : 1024 Мбайт
Продолжительность : 17 м.
Общий поток : 8090 Кбит/сек
Видео
Идентификатор : 224 (0xE0)
Формат : MPEG Video
Версия формата : Version 2
Профиль формата : Main@Main
Параметр BVOP формата : Да
Параметр матрицы формата : Выборочная
Параметры GOP формата : M=3, N=15
Продолжительность : 17 м.
Вид битрейта : Переменный
Битрейт : 6393 Кбит/сек
Максимальный битрейт : 8264 Кбит/сек
Ширина : 720 пикс.
Высота : 480 пикс.
Соотношение сторон : 4:3
Частота кадров : 29,970 кадр/сек
Стандарт вещания : NTSC
Цветовое пространство : YUV
Подвыборка цветности : 4:2:0
Битовая глубина : 8 бит
Тип развёртки : Чересстрочная
Порядок развёртки : Верхнее поле первое
Метод сжатия : С потерями
Бит/(Пиксели*Кадры) : 0.617
Размер потока : 809 Мбайт (79%)
Аудио
Идентификатор : 189 (0xBD)-160 (0xA0)
Формат : PCM
Параметр Endianness формата : Big
Параметр Sign формата : Signed
Режим смешивания : DVD-Video
Продолжительность : 17 м.
Вид битрейта : Постоянный
Битрейт : 1536 Кбит/сек
Каналы : 2 канала
Расположение каналов : Front: L R
Частота : 48,0 КГц
Битовая глубина : 16 бит
Задержка видео : -640 мс.
Размер потока : 194 Мбайт (19%)
Меню
Общее
Полное имя : F:\ШАРА F\CLIPS\AC-DC - Family Jewels\Disc 1 DVD-9 Bon Scott\VIDEO_TS\VTS_02_4.VOB
Формат : MPEG-PS
Размер файла : 1024 Мбайт
Продолжительность : 16 м.
Общий поток : 8550 Кбит/сек
Видео
Идентификатор : 224 (0xE0)
Формат : MPEG Video
Версия формата : Version 2
Профиль формата : Main@Main
Параметр BVOP формата : Да
Параметр матрицы формата : Выборочная
Параметры GOP формата : M=3, N=15
Продолжительность : 16 м.
Вид битрейта : Переменный
Битрейт : 6844 Кбит/сек
Максимальный битрейт : 8264 Кбит/сек
Ширина : 720 пикс.
Высота : 480 пикс.
Соотношение сторон : 4:3
Частота кадров : 29,970 кадр/сек
Стандарт вещания : NTSC
Цветовое пространство : YUV
Подвыборка цветности : 4:2:0
Битовая глубина : 8 бит
Тип развёртки : Чересстрочная
Порядок развёртки : Верхнее поле первое
Метод сжатия : С потерями
Бит/(Пиксели*Кадры) : 0.661
Размер потока : 819 Мбайт (80%)
Аудио
Идентификатор : 189 (0xBD)-160 (0xA0)
Формат : PCM
Параметр Endianness формата : Big
Параметр Sign формата : Signed
Режим смешивания : DVD-Video
Продолжительность : 16 м.
Вид битрейта : Постоянный
Битрейт : 1536 Кбит/сек
Каналы : 2 канала
Расположение каналов : Front: L R
Частота : 48,0 КГц
Битовая глубина : 16 бит
Задержка видео : -723 мс.
Размер потока : 184 Мбайт (18%)
Меню
Общее
Полное имя : F:\ШАРА F\CLIPS\AC-DC - Family Jewels\Disc 1 DVD-9 Bon Scott\VIDEO_TS\VTS_02_5.VOB
Формат : MPEG-PS
Размер файла : 1024 Мбайт
Продолжительность : 16 м.
Общий поток : 8706 Кбит/сек
Видео
Идентификатор : 224 (0xE0)
Формат : MPEG Video
Версия формата : Version 2
Профиль формата : Main@Main
Параметр BVOP формата : Да
Параметр матрицы формата : Выборочная
Параметры GOP формата : M=3, N=15
Продолжительность : 16 м.
Вид битрейта : Переменный
Битрейт : 6997 Кбит/сек
Максимальный битрейт : 8264 Кбит/сек
Ширина : 720 пикс.
Высота : 480 пикс.
Соотношение сторон : 4:3
Частота кадров : 29,970 кадр/сек
Стандарт вещания : NTSC
Цветовое пространство : YUV
Подвыборка цветности : 4:2:0
Битовая глубина : 8 бит
Тип развёртки : Чересстрочная
Порядок развёртки : Верхнее поле первое
Метод сжатия : С потерями
Бит/(Пиксели*Кадры) : 0.676
Размер потока : 822 Мбайт (80%)
Аудио
Идентификатор : 189 (0xBD)-160 (0xA0)
Формат : PCM
Параметр Endianness формата : Big
Параметр Sign формата : Signed
Режим смешивания : DVD-Video
Продолжительность : 16 м.
Вид битрейта : Постоянный
Битрейт : 1536 Кбит/сек
Каналы : 2 канала
Расположение каналов : Front: L R
Частота : 48,0 КГц
Битовая глубина : 16 бит
Задержка видео : -724 мс.
Размер потока : 181 Мбайт (18%)
Меню
Общее
Полное имя : F:\ШАРА F\CLIPS\AC-DC - Family Jewels\Disc 1 DVD-9 Bon Scott\VIDEO_TS\VTS_02_6.VOB
Формат : MPEG-PS
Размер файла : 462 Мбайт
Продолжительность : 7 м. 21 с.
Общий поток : 8762 Кбит/сек
Видео
Идентификатор : 224 (0xE0)
Формат : MPEG Video
Версия формата : Version 2
Профиль формата : Main@Main
Параметр BVOP формата : Да
Параметр матрицы формата : Выборочная
Параметры GOP формата : M=3, N=15
Продолжительность : 7 м. 21 с.
Вид битрейта : Переменный
Битрейт : 7052 Кбит/сек
Максимальный битрейт : 8264 Кбит/сек
Ширина : 720 пикс.
Высота : 480 пикс.
Соотношение сторон : 4:3
Частота кадров : 29,970 кадр/сек
Стандарт вещания : NTSC
Цветовое пространство : YUV
Подвыборка цветности : 4:2:0
Битовая глубина : 8 бит
Тип развёртки : Чересстрочная
Порядок развёртки : Верхнее поле первое
Метод сжатия : С потерями
Бит/(Пиксели*Кадры) : 0.681
Размер потока : 371 Мбайт (80%)
Аудио
Идентификатор : 189 (0xBD)-160 (0xA0)
Формат : PCM
Параметр Endianness формата : Big
Параметр Sign формата : Signed
Режим смешивания : DVD-Video
Продолжительность : 7 м. 13 с.
Вид битрейта : Постоянный
Битрейт : 1536 Кбит/сек
Каналы : 2 канала
Расположение каналов : Front: L R
Частота : 48,0 КГц
Битовая глубина : 16 бит
Задержка видео : -675 мс.
Размер потока : 79,4 Мбайт (17%)
Меню
Общее
Полное имя : F:\ШАРА F\CLIPS\AC-DC - Family Jewels\Disc 1 DVD-9 Bon Scott\VIDEO_TS\VTS_03_0.BUP
Формат : DVD Video
Профиль формата : Program
Размер файла : 18,0 Кбайт
Продолжительность : 11 с.
Общий поток : 13,4 Кбит/сек
Видео
Идентификатор : 224 (0xE0)
Формат : MPEG Video
Версия формата : Version 2
Продолжительность : 11 с.
Вид битрейта : Переменный
Ширина : 720 пикс.
Высота : 480 пикс.
Соотношение сторон : 4:3
Частота кадров : 29,970 кадр/сек
Стандарт вещания : NTSC
Метод сжатия : С потерями
Аудио
Идентификатор : 0 (0x0)
Формат : PCM
Продолжительность : 11 с.
Каналы : 2 канала
Частота : 48,0 КГц
Язык : English
Меню
Продолжительность : 11 с.
00:00:00.000 : Chapter 1
List (Audio) : 0
Общее
Полное имя : F:\ШАРА F\CLIPS\AC-DC - Family Jewels\Disc 1 DVD-9 Bon Scott\VIDEO_TS\VTS_03_0.IFO
Формат : DVD Video
Профиль формата : Program
Размер файла : 18,0 Кбайт
Продолжительность : 11 с.
Общий поток : 13,4 Кбит/сек
Видео
Идентификатор : 224 (0xE0)
Формат : MPEG Video
Версия формата : Version 2
Продолжительность : 11 с.
Вид битрейта : Переменный
Ширина : 720 пикс.
Высота : 480 пикс.
Соотношение сторон : 4:3
Частота кадров : 29,970 кадр/сек
Стандарт вещания : NTSC
Метод сжатия : С потерями
Аудио
Идентификатор : 0 (0x0)
Формат : PCM
Продолжительность : 11 с.
Каналы : 2 канала
Частота : 48,0 КГц
Язык : English
Меню
Продолжительность : 11 с.
00:00:00.000 : Chapter 1
List (Audio) : 0
Общее
Полное имя : F:\ШАРА F\CLIPS\AC-DC - Family Jewels\Disc 1 DVD-9 Bon Scott\VIDEO_TS\VTS_03_0.VOB
Формат : MPEG-PS
Размер файла : 114 Кбайт
Продолжительность : 400 мс.
Общий поток : 2335 Кбит/сек
Видео
Идентификатор : 224 (0xE0)
Формат : MPEG Video
Версия формата : Version 2
Профиль формата : Main@Main
Параметр BVOP формата : Да
Параметр матрицы формата : Выборочная
Продолжительность : 400 мс.
Максимальный битрейт : 2000 Кбит/сек
Ширина : 720 пикс.
Высота : 480 пикс.
Соотношение сторон : 4:3
Частота кадров : 29,970 кадр/сек
Стандарт вещания : NTSC
Цветовое пространство : YUV
Подвыборка цветности : 4:2:0
Битовая глубина : 8 бит
Тип развёртки : Чересстрочная
Порядок развёртки : Верхнее поле первое
Метод сжатия : С потерями
Текст
Идентификатор : 189 (0xBD)-32 (0x20)
Формат : RLE
Формат/Информация : Run-length encoding
Режим смешивания : DVD-Video
Задержка видео : -66 мс.
Меню
Общее
Полное имя : F:\ШАРА F\CLIPS\AC-DC - Family Jewels\Disc 1 DVD-9 Bon Scott\VIDEO_TS\VTS_03_1.VOB
Формат : MPEG-PS
Размер файла : 8,42 Мбайт
Продолжительность : 10 с.
Общий поток : 6440 Кбит/сек
Видео
Идентификатор : 224 (0xE0)
Формат : MPEG Video
Версия формата : Version 2
Профиль формата : Main@Main
Параметр BVOP формата : Да
Параметр матрицы формата : Выборочная
Параметры GOP формата : M=3, N=15
Продолжительность : 10 с.
Вид битрейта : Переменный
Битрейт : 4775 Кбит/сек
Максимальный битрейт : 8000 Кбит/сек
Ширина : 720 пикс.
Высота : 480 пикс.
Соотношение сторон : 4:3
Частота кадров : 29,970 кадр/сек
Стандарт вещания : NTSC
Цветовое пространство : YUV
Подвыборка цветности : 4:2:0
Битовая глубина : 8 бит
Тип развёртки : Чересстрочная
Порядок развёртки : Верхнее поле первое
Метод сжатия : С потерями
Бит/(Пиксели*Кадры) : 0.461
Размер потока : 6,23 Мбайт (74%)
Аудио
Идентификатор : 189 (0xBD)-160 (0xA0)
Формат : PCM
Параметр Endianness формата : Big
Параметр Sign формата : Signed
Режим смешивания : DVD-Video
Продолжительность : 10 с.
Вид битрейта : Постоянный
Битрейт : 1536 Кбит/сек
Каналы : 2 канала
Расположение каналов : Front: L R
Частота : 48,0 КГц
Битовая глубина : 16 бит
Задержка видео : -66 мс.
Размер потока : 2,01 Мбайт (24%)
Меню
Общее
Полное имя : F:\ШАРА F\CLIPS\AC-DC - Family Jewels\Disc 2 DVD-9 Brian Johnson\VIDEO_TS\VIDEO_TS.BUP
Формат : DVD Video
Профиль формата : Menu
Размер файла : 18,0 Кбайт
Видео
Идентификатор : 224 (0xE0)
Формат : MPEG Video
Версия формата : Version 2
Вид битрейта : Переменный
Ширина : 720 пикс.
Высота : 480 пикс.
Соотношение сторон : 4:3
Частота кадров : 29,970 кадр/сек
Стандарт вещания : NTSC
Метод сжатия : С потерями
Текст
Формат : RLE
Формат/Информация : Run-length encoding
Битовая глубина : 2 бит
Общее
Полное имя : F:\ШАРА F\CLIPS\AC-DC - Family Jewels\Disc 2 DVD-9 Brian Johnson\VIDEO_TS\VIDEO_TS.IFO
Формат : DVD Video
Профиль формата : Menu
Размер файла : 18,0 Кбайт
Видео
Идентификатор : 224 (0xE0)
Формат : MPEG Video
Версия формата : Version 2
Вид битрейта : Переменный
Ширина : 720 пикс.
Высота : 480 пикс.
Соотношение сторон : 4:3
Частота кадров : 29,970 кадр/сек
Стандарт вещания : NTSC
Метод сжатия : С потерями
Текст
Формат : RLE
Формат/Информация : Run-length encoding
Битовая глубина : 2 бит
Общее
Полное имя : F:\ШАРА F\CLIPS\AC-DC - Family Jewels\Disc 2 DVD-9 Brian Johnson\VIDEO_TS\VIDEO_TS.VOB
Формат : MPEG-PS
Размер файла : 114 Кбайт
Продолжительность : 400 мс.
Общий поток : 2335 Кбит/сек
Видео
Идентификатор : 224 (0xE0)
Формат : MPEG Video
Версия формата : Version 2
Профиль формата : Main@Main
Параметр BVOP формата : Да
Параметр матрицы формата : Выборочная
Продолжительность : 400 мс.
Максимальный битрейт : 2000 Кбит/сек
Ширина : 720 пикс.
Высота : 480 пикс.
Соотношение сторон : 4:3
Частота кадров : 29,970 кадр/сек
Стандарт вещания : NTSC
Цветовое пространство : YUV
Подвыборка цветности : 4:2:0
Битовая глубина : 8 бит
Тип развёртки : Чересстрочная
Порядок развёртки : Верхнее поле первое
Метод сжатия : С потерями
Текст
Идентификатор : 189 (0xBD)-32 (0x20)
Формат : RLE
Формат/Информация : Run-length encoding
Режим смешивания : DVD-Video
Задержка видео : -66 мс.
Меню
Общее
Полное имя : F:\ШАРА F\CLIPS\AC-DC - Family Jewels\Disc 2 DVD-9 Brian Johnson\VIDEO_TS\VTS_01_0.BUP
Формат : DVD Video
Профиль формата : Program
Размер файла : 44,0 Кбайт
Продолжительность : 20 с.
Общий поток : 18,0 Кбит/сек
Видео
Идентификатор : 224 (0xE0)
Формат : MPEG Video
Версия формата : Version 2
Продолжительность : 20 с.
Вид битрейта : Переменный
Ширина : 720 пикс.
Высота : 480 пикс.
Соотношение сторон : 4:3
Частота кадров : 29,970 кадр/сек
Стандарт вещания : NTSC
Метод сжатия : С потерями
Аудио #1
Идентификатор : 0 (0x0)
Формат : PCM
Продолжительность : 20 с.
Каналы : 2 канала
Частота : 48,0 КГц
Язык : English
Аудио #2
Формат : AC-3
Формат/Информация : Audio Coding 3
Продолжительность : 20 с.
Каналы : 6 каналов
Частота : 48,0 КГц
Метод сжатия : С потерями
Язык : English
Аудио #3
Формат : AC-3
Формат/Информация : Audio Coding 3
Продолжительность : 20 с.
Каналы : 6 каналов
Частота : 48,0 КГц
Метод сжатия : С потерями
Язык : English
Аудио #4
Формат : AC-3
Формат/Информация : Audio Coding 3
Продолжительность : 20 с.
Каналы : 6 каналов
Частота : 48,0 КГц
Метод сжатия : С потерями
Язык : English
Аудио #5
Формат : AC-3
Формат/Информация : Audio Coding 3
Продолжительность : 20 с.
Каналы : 6 каналов
Частота : 48,0 КГц
Метод сжатия : С потерями
Язык : English
Аудио #6
Формат : AC-3
Формат/Информация : Audio Coding 3
Продолжительность : 20 с.
Каналы : 6 каналов
Частота : 48,0 КГц
Метод сжатия : С потерями
Язык : English
Аудио #7
Формат : AC-3
Формат/Информация : Audio Coding 3
Продолжительность : 20 с.
Каналы : 6 каналов
Частота : 48,0 КГц
Метод сжатия : С потерями
Язык : English
Аудио #8
Формат : AC-3
Формат/Информация : Audio Coding 3
Продолжительность : 20 с.
Каналы : 6 каналов
Частота : 48,0 КГц
Метод сжатия : С потерями
Язык : English
Текст #1
Формат : RLE
Формат/Информация : Run-length encoding
Битовая глубина : 2 бит
Текст #2
Формат : RLE
Формат/Информация : Run-length encoding
Битовая глубина : 2 бит
Текст #3
Формат : RLE
Формат/Информация : Run-length encoding
Битовая глубина : 2 бит
Текст #4
Формат : RLE
Формат/Информация : Run-length encoding
Битовая глубина : 2 бит
Текст #5
Формат : RLE
Формат/Информация : Run-length encoding
Битовая глубина : 2 бит
Текст #6
Формат : RLE
Формат/Информация : Run-length encoding
Битовая глубина : 2 бит
Текст #7
Формат : RLE
Формат/Информация : Run-length encoding
Битовая глубина : 2 бит
Текст #8
Формат : RLE
Формат/Информация : Run-length encoding
Битовая глубина : 2 бит
Текст #9
Формат : RLE
Формат/Информация : Run-length encoding
Битовая глубина : 2 бит
Текст #10
Формат : RLE
Формат/Информация : Run-length encoding
Битовая глубина : 2 бит
Текст #11
Формат : RLE
Формат/Информация : Run-length encoding
Битовая глубина : 2 бит
Текст #12
Формат : RLE
Формат/Информация : Run-length encoding
Битовая глубина : 2 бит
Текст #13
Формат : RLE
Формат/Информация : Run-length encoding
Битовая глубина : 2 бит
Текст #14
Формат : RLE
Формат/Информация : Run-length encoding
Битовая глубина : 2 бит
Текст #15
Формат : RLE
Формат/Информация : Run-length encoding
Битовая глубина : 2 бит
Текст #16
Формат : RLE
Формат/Информация : Run-length encoding
Битовая глубина : 2 бит
Текст #17
Формат : RLE
Формат/Информация : Run-length encoding
Битовая глубина : 2 бит
Текст #18
Формат : RLE
Формат/Информация : Run-length encoding
Битовая глубина : 2 бит
Текст #19
Формат : RLE
Формат/Информация : Run-length encoding
Битовая глубина : 2 бит
Текст #20
Формат : RLE
Формат/Информация : Run-length encoding
Битовая глубина : 2 бит
Текст #21
Формат : RLE
Формат/Информация : Run-length encoding
Битовая глубина : 2 бит
Текст #22
Формат : RLE
Формат/Информация : Run-length encoding
Битовая глубина : 2 бит
Текст #23
Формат : RLE
Формат/Информация : Run-length encoding
Битовая глубина : 2 бит
Текст #24
Формат : RLE
Формат/Информация : Run-length encoding
Битовая глубина : 2 бит
Текст #25
Формат : RLE
Формат/Информация : Run-length encoding
Битовая глубина : 2 бит
Текст #26
Формат : RLE
Формат/Информация : Run-length encoding
Битовая глубина : 2 бит
Текст #27
Формат : RLE
Формат/Информация : Run-length encoding
Битовая глубина : 2 бит
Текст #28
Формат : RLE
Формат/Информация : Run-length encoding
Битовая глубина : 2 бит
Текст #29
Формат : RLE
Формат/Информация : Run-length encoding
Битовая глубина : 2 бит
Текст #30
Формат : RLE
Формат/Информация : Run-length encoding
Битовая глубина : 2 бит
Текст #31
Формат : RLE
Формат/Информация : Run-length encoding
Битовая глубина : 2 бит
Текст #32
Формат : RLE
Формат/Информация : Run-length encoding
Битовая глубина : 2 бит
Меню
Продолжительность : 20 с.
00:00:00.000 : Chapter 1
List (Audio) : 0
Общее
Полное имя : F:\ШАРА F\CLIPS\AC-DC - Family Jewels\Disc 2 DVD-9 Brian Johnson\VIDEO_TS\VTS_01_0.IFO
Формат : DVD Video
Профиль формата : Program
Размер файла : 44,0 Кбайт
Продолжительность : 20 с.
Общий поток : 18,0 Кбит/сек
Видео
Идентификатор : 224 (0xE0)
Формат : MPEG Video
Версия формата : Version 2
Продолжительность : 20 с.
Вид битрейта : Переменный
Ширина : 720 пикс.
Высота : 480 пикс.
Соотношение сторон : 4:3
Частота кадров : 29,970 кадр/сек
Стандарт вещания : NTSC
Метод сжатия : С потерями
Аудио #1
Идентификатор : 0 (0x0)
Формат : PCM
Продолжительность : 20 с.
Каналы : 2 канала
Частота : 48,0 КГц
Язык : English
Аудио #2
Формат : AC-3
Формат/Информация : Audio Coding 3
Продолжительность : 20 с.
Каналы : 6 каналов
Частота : 48,0 КГц
Метод сжатия : С потерями
Язык : English
Аудио #3
Формат : AC-3
Формат/Информация : Audio Coding 3
Продолжительность : 20 с.
Каналы : 6 каналов
Частота : 48,0 КГц
Метод сжатия : С потерями
Язык : English
Аудио #4
Формат : AC-3
Формат/Информация : Audio Coding 3
Продолжительность : 20 с.
Каналы : 6 каналов
Частота : 48,0 КГц
Метод сжатия : С потерями
Язык : English
Аудио #5
Формат : AC-3
Формат/Информация : Audio Coding 3
Продолжительность : 20 с.
Каналы : 6 каналов
Частота : 48,0 КГц
Метод сжатия : С потерями
Язык : English
Аудио #6
Формат : AC-3
Формат/Информация : Audio Coding 3
Продолжительность : 20 с.
Каналы : 6 каналов
Частота : 48,0 КГц
Метод сжатия : С потерями
Язык : English
Аудио #7
Формат : AC-3
Формат/Информация : Audio Coding 3
Продолжительность : 20 с.
Каналы : 6 каналов
Частота : 48,0 КГц
Метод сжатия : С потерями
Язык : English
Аудио #8
Формат : AC-3
Формат/Информация : Audio Coding 3
Продолжительность : 20 с.
Каналы : 6 каналов
Частота : 48,0 КГц
Метод сжатия : С потерями
Язык : English
Текст #1
Формат : RLE
Формат/Информация : Run-length encoding
Битовая глубина : 2 бит
Текст #2
Формат : RLE
Формат/Информация : Run-length encoding
Битовая глубина : 2 бит
Текст #3
Формат : RLE
Формат/Информация : Run-length encoding
Битовая глубина : 2 бит
Текст #4
Формат : RLE
Формат/Информация : Run-length encoding
Битовая глубина : 2 бит
Текст #5
Формат : RLE
Формат/Информация : Run-length encoding
Битовая глубина : 2 бит
Текст #6
Формат : RLE
Формат/Информация : Run-length encoding
Битовая глубина : 2 бит
Текст #7
Формат : RLE
Формат/Информация : Run-length encoding
Битовая глубина : 2 бит
Текст #8
Формат : RLE
Формат/Информация : Run-length encoding
Битовая глубина : 2 бит
Текст #9
Формат : RLE
Формат/Информация : Run-length encoding
Битовая глубина : 2 бит
Текст #10
Формат : RLE
Формат/Информация : Run-length encoding
Битовая глубина : 2 бит
Текст #11
Формат : RLE
Формат/Информация : Run-length encoding
Битовая глубина : 2 бит
Текст #12
Формат : RLE
Формат/Информация : Run-length encoding
Битовая глубина : 2 бит
Текст #13
Формат : RLE
Формат/Информация : Run-length encoding
Битовая глубина : 2 бит
Текст #14
Формат : RLE
Формат/Информация : Run-length encoding
Битовая глубина : 2 бит
Текст #15
Формат : RLE
Формат/Информация : Run-length encoding
Битовая глубина : 2 бит
Текст #16
Формат : RLE
Формат/Информация : Run-length encoding
Битовая глубина : 2 бит
Текст #17
Формат : RLE
Формат/Информация : Run-length encoding
Битовая глубина : 2 бит
Текст #18
Формат : RLE
Формат/Информация : Run-length encoding
Битовая глубина : 2 бит
Текст #19
Формат : RLE
Формат/Информация : Run-length encoding
Битовая глубина : 2 бит
Текст #20
Формат : RLE
Формат/Информация : Run-length encoding
Битовая глубина : 2 бит
Текст #21
Формат : RLE
Формат/Информация : Run-length encoding
Битовая глубина : 2 бит
Текст #22
Формат : RLE
Формат/Информация : Run-length encoding
Битовая глубина : 2 бит
Текст #23
Формат : RLE
Формат/Информация : Run-length encoding
Битовая глубина : 2 бит
Текст #24
Формат : RLE
Формат/Информация : Run-length encoding
Битовая глубина : 2 бит
Текст #25
Формат : RLE
Формат/Информация : Run-length encoding
Битовая глубина : 2 бит
Текст #26
Формат : RLE
Формат/Информация : Run-length encoding
Битовая глубина : 2 бит
Текст #27
Формат : RLE
Формат/Информация : Run-length encoding
Битовая глубина : 2 бит
Текст #28
Формат : RLE
Формат/Информация : Run-length encoding
Битовая глубина : 2 бит
Текст #29
Формат : RLE
Формат/Информация : Run-length encoding
Битовая глубина : 2 бит
Текст #30
Формат : RLE
Формат/Информация : Run-length encoding
Битовая глубина : 2 бит
Текст #31
Формат : RLE
Формат/Информация : Run-length encoding
Битовая глубина : 2 бит
Текст #32
Формат : RLE
Формат/Информация : Run-length encoding
Битовая глубина : 2 бит
Меню
Продолжительность : 20 с.
00:00:00.000 : Chapter 1
List (Audio) : 0
Общее
Полное имя : F:\ШАРА F\CLIPS\AC-DC - Family Jewels\Disc 2 DVD-9 Brian Johnson\VIDEO_TS\VTS_01_0.VOB
Формат : MPEG-PS
Размер файла : 106 Мбайт
Продолжительность : 33 мс.
Общий поток : 26888129939
Видео
Идентификатор : 224 (0xE0)
Формат : MPEG Video
Версия формата : Version 2
Профиль формата : Main@Main
Параметр BVOP формата : Да
Параметр матрицы формата : Выборочная
Продолжительность : 33 мс.
Вид битрейта : Переменный
Максимальный битрейт : 8254 Кбит/сек
Ширина : 720 пикс.
Высота : 480 пикс.
Соотношение сторон : 4:3
Частота кадров : 29,970 кадр/сек
Стандарт вещания : NTSC
Цветовое пространство : YUV
Подвыборка цветности : 4:2:0
Битовая глубина : 8 бит
Тип развёртки : Чересстрочная
Порядок развёртки : Верхнее поле первое
Метод сжатия : С потерями
Аудио
Идентификатор : 189 (0xBD)-160 (0xA0)
Формат : PCM
Параметр Endianness формата : Big
Параметр Sign формата : Signed
Режим смешивания : DVD-Video
Продолжительность : 33 мс.
Вид битрейта : Постоянный
Битрейт : 1536 Кбит/сек
Каналы : 2 канала
Расположение каналов : Front: L R
Частота : 48,0 КГц
Битовая глубина : 16 бит
Размер потока : 6,19 Кбайт (0%)
Текст
Идентификатор : 189 (0xBD)-32 (0x20)
Формат : RLE
Формат/Информация : Run-length encoding
Режим смешивания : DVD-Video
Меню
Общее
Полное имя : F:\ШАРА F\CLIPS\AC-DC - Family Jewels\Disc 2 DVD-9 Brian Johnson\VIDEO_TS\VTS_01_1.VOB
Формат : MPEG-PS
Размер файла : 18,6 Мбайт
Продолжительность : 20 с.
Общий поток : 7806 Кбит/сек
Видео
Идентификатор : 224 (0xE0)
Формат : MPEG Video
Версия формата : Version 2
Профиль формата : Main@Main
Параметр BVOP формата : Да
Параметр матрицы формата : Выборочная
Параметры GOP формата : M=3, N=15
Продолжительность : 19 с.
Вид битрейта : Переменный
Битрейт : 6114 Кбит/сек
Максимальный битрейт : 8500 Кбит/сек
Ширина : 720 пикс.
Высота : 480 пикс.
Соотношение сторон : 4:3
Частота кадров : 29,970 кадр/сек
Стандарт вещания : NTSC
Цветовое пространство : YUV
Подвыборка цветности : 4:2:0
Битовая глубина : 8 бит
Тип развёртки : Чересстрочная
Порядок развёртки : Верхнее поле первое
Метод сжатия : С потерями
Бит/(Пиксели*Кадры) : 0.590
Размер потока : 14,6 Мбайт (78%)
Аудио
Идентификатор : 189 (0xBD)-160 (0xA0)
Формат : PCM
Параметр Endianness формата : Big
Параметр Sign формата : Signed
Режим смешивания : DVD-Video
Продолжительность : 20 с.
Вид битрейта : Постоянный
Битрейт : 1536 Кбит/сек
Каналы : 2 канала
Расположение каналов : Front: L R
Частота : 48,0 КГц
Битовая глубина : 16 бит
Задержка видео : -66 мс.
Размер потока : 3,67 Мбайт (20%)
Меню
Общее
Полное имя : F:\ШАРА F\CLIPS\AC-DC - Family Jewels\Disc 2 DVD-9 Brian Johnson\VIDEO_TS\VTS_02_0.BUP
Формат : DVD Video
Профиль формата : Program
Размер файла : 66,0 Кбайт
Продолжительность : 1 ч. 28 м.
Общий поток : 101 бит/сек
Видео
Идентификатор : 224 (0xE0)
Формат : MPEG Video
Версия формата : Version 2
Продолжительность : 1 ч. 28 м.
Вид битрейта : Переменный
Ширина : 720 пикс.
Высота : 480 пикс.
Соотношение сторон : 4:3
Частота кадров : 29,970 кадр/сек
Стандарт вещания : NTSC
Метод сжатия : С потерями
Аудио
Идентификатор : 0 (0x0)
Формат : PCM
Продолжительность : 1 ч. 28 м.
Каналы : 2 канала
Частота : 48,0 КГц
Язык : English
Меню
Продолжительность : 1 ч. 28 м.
00:00:00.000 : Chapter 1
00:05:19.066 : Chapter 2
00:09:39.999 : Chapter 3
00:13:22.765 : Chapter 4
00:17:42.531 : Chapter 5
00:21:40.931 : Chapter 6
00:28:05.531 : Chapter 7
00:31:25.297 : Chapter 8
00:35:59.663 : Chapter 9
00:42:35.496 : Chapter 10
00:47:14.496 : Chapter 11
00:51:38.996 : Chapter 12
00:55:59.996 : Chapter 13
01:00:13.396 : Chapter 14
01:03:46.762 : Chapter 15
01:07:23.895 : Chapter 16
01:11:16.495 : Chapter 17
01:15:06.328 : Chapter 18
01:20:05.094 : Chapter 19
01:23:58.460 : Chapter 20
01:28:25.326 : Chapter 21
List (Audio) : 0
Общее
Полное имя : F:\ШАРА F\CLIPS\AC-DC - Family Jewels\Disc 2 DVD-9 Brian Johnson\VIDEO_TS\VTS_02_0.IFO
Формат : DVD Video
Профиль формата : Program
Размер файла : 66,0 Кбайт
Продолжительность : 1 ч. 28 м.
Общий поток : 101 бит/сек
Видео
Идентификатор : 224 (0xE0)
Формат : MPEG Video
Версия формата : Version 2
Продолжительность : 1 ч. 28 м.
Вид битрейта : Переменный
Ширина : 720 пикс.
Высота : 480 пикс.
Соотношение сторон : 4:3
Частота кадров : 29,970 кадр/сек
Стандарт вещания : NTSC
Метод сжатия : С потерями
Аудио
Идентификатор : 0 (0x0)
Формат : PCM
Продолжительность : 1 ч. 28 м.
Каналы : 2 канала
Частота : 48,0 КГц
Язык : English
Меню
Продолжительность : 1 ч. 28 м.
00:00:00.000 : Chapter 1
00:05:19.066 : Chapter 2
00:09:39.999 : Chapter 3
00:13:22.765 : Chapter 4
00:17:42.531 : Chapter 5
00:21:40.931 : Chapter 6
00:28:05.531 : Chapter 7
00:31:25.297 : Chapter 8
00:35:59.663 : Chapter 9
00:42:35.496 : Chapter 10
00:47:14.496 : Chapter 11
00:51:38.996 : Chapter 12
00:55:59.996 : Chapter 13
01:00:13.396 : Chapter 14
01:03:46.762 : Chapter 15
01:07:23.895 : Chapter 16
01:11:16.495 : Chapter 17
01:15:06.328 : Chapter 18
01:20:05.094 : Chapter 19
01:23:58.460 : Chapter 20
01:28:25.326 : Chapter 21
List (Audio) : 0
Общее
Полное имя : F:\ШАРА F\CLIPS\AC-DC - Family Jewels\Disc 2 DVD-9 Brian Johnson\VIDEO_TS\VTS_02_0.VOB
Формат : MPEG-PS
Размер файла : 114 Кбайт
Продолжительность : 400 мс.
Общий поток : 2335 Кбит/сек
Видео
Идентификатор : 224 (0xE0)
Формат : MPEG Video
Версия формата : Version 2
Профиль формата : Main@Main
Параметр BVOP формата : Да
Параметр матрицы формата : Выборочная
Продолжительность : 400 мс.
Максимальный битрейт : 2000 Кбит/сек
Ширина : 720 пикс.
Высота : 480 пикс.
Соотношение сторон : 4:3
Частота кадров : 29,970 кадр/сек
Стандарт вещания : NTSC
Цветовое пространство : YUV
Подвыборка цветности : 4:2:0
Битовая глубина : 8 бит
Тип развёртки : Чересстрочная
Порядок развёртки : Верхнее поле первое
Метод сжатия : С потерями
Текст
Идентификатор : 189 (0xBD)-32 (0x20)
Формат : RLE
Формат/Информация : Run-length encoding
Режим смешивания : DVD-Video
Задержка видео : -66 мс.
Меню
Общее
Полное имя : F:\ШАРА F\CLIPS\AC-DC - Family Jewels\Disc 2 DVD-9 Brian Johnson\VIDEO_TS\VTS_02_1.VOB
Формат : MPEG-PS
Размер файла : 1024 Мбайт
Продолжительность : 16 м.
Общий поток : 8851 Кбит/сек
Видео
Идентификатор : 224 (0xE0)
Формат : MPEG Video
Версия формата : Version 2
Профиль формата : Main@Main
Параметр BVOP формата : Да
Параметр матрицы формата : Выборочная
Продолжительность : 16 м.
Вид битрейта : Переменный
Битрейт : 7139 Кбит/сек
Максимальный битрейт : 8264 Кбит/сек
Ширина : 720 пикс.
Высота : 480 пикс.
Соотношение сторон : 4:3
Частота кадров : 29,970 кадр/сек
Стандарт вещания : NTSC
Цветовое пространство : YUV
Подвыборка цветности : 4:2:0
Битовая глубина : 8 бит
Тип развёртки : Чересстрочная
Порядок развёртки : Верхнее поле первое
Метод сжатия : С потерями
Бит/(Пиксели*Кадры) : 0.689
Размер потока : 826 Мбайт (81%)
Аудио
Идентификатор : 189 (0xBD)-160 (0xA0)
Формат : PCM
Параметр Endianness формата : Big
Параметр Sign формата : Signed
Режим смешивания : DVD-Video
Продолжительность : 16 м.
Вид битрейта : Постоянный
Битрейт : 1536 Кбит/сек
Каналы : 2 канала
Расположение каналов : Front: L R
Частота : 48,0 КГц
Битовая глубина : 16 бит
Размер потока : 178 Мбайт (17%)
Меню
Общее
Полное имя : F:\ШАРА F\CLIPS\AC-DC - Family Jewels\Disc 2 DVD-9 Brian Johnson\VIDEO_TS\VTS_02_2.VOB
Формат : MPEG-PS
Размер файла : 1024 Мбайт
Продолжительность : 16 м.
Общий поток : 8700 Кбит/сек
Видео
Идентификатор : 224 (0xE0)
Формат : MPEG Video
Версия формата : Version 2
Профиль формата : Main@Main
Параметр BVOP формата : Да
Параметр матрицы формата : Выборочная
Параметры GOP формата : M=3, N=15
Продолжительность : 16 м.
Вид битрейта : Переменный
Битрейт : 6991 Кбит/сек
Максимальный битрейт : 8264 Кбит/сек
Ширина : 720 пикс.
Высота : 480 пикс.
Соотношение сторон : 4:3
Частота кадров : 29,970 кадр/сек
Стандарт вещания : NTSC
Цветовое пространство : YUV
Подвыборка цветности : 4:2:0
Битовая глубина : 8 бит
Тип развёртки : Чересстрочная
Порядок развёртки : Верхнее поле первое
Метод сжатия : С потерями
Бит/(Пиксели*Кадры) : 0.675
Размер потока : 823 Мбайт (80%)
Аудио
Идентификатор : 189 (0xBD)-160 (0xA0)
Формат : PCM
Параметр Endianness формата : Big
Параметр Sign формата : Signed
Режим смешивания : DVD-Video
Продолжительность : 16 м.
Вид битрейта : Постоянный
Битрейт : 1536 Кбит/сек
Каналы : 2 канала
Расположение каналов : Front: L R
Частота : 48,0 КГц
Битовая глубина : 16 бит
Задержка видео : -515 мс.
Размер потока : 181 Мбайт (18%)
Меню
Общее
Полное имя : F:\ШАРА F\CLIPS\AC-DC - Family Jewels\Disc 2 DVD-9 Brian Johnson\VIDEO_TS\VTS_02_3.VOB
Формат : MPEG-PS
Размер файла : 1024 Мбайт
Продолжительность : 17 м.
Общий поток : 8200 Кбит/сек
Видео
Идентификатор : 224 (0xE0)
Формат : MPEG Video
Версия формата : Version 2
Профиль формата : Main@Main
Параметр BVOP формата : Да
Параметр матрицы формата : Выборочная
Параметры GOP формата : M=3, N=15
Продолжительность : 17 м.
Вид битрейта : Переменный
Битрейт : 6501 Кбит/сек
Максимальный битрейт : 8264 Кбит/сек
Ширина : 720 пикс.
Высота : 480 пикс.
Соотношение сторон : 4:3
Частота кадров : 29,970 кадр/сек
Стандарт вещания : NTSC
Цветовое пространство : YUV
Подвыборка цветности : 4:2:0
Битовая глубина : 8 бит
Тип развёртки : Чересстрочная
Порядок развёртки : Верхнее поле первое
Метод сжатия : С потерями
Бит/(Пиксели*Кадры) : 0.628
Размер потока : 811 Мбайт (79%)
Аудио
Идентификатор : 189 (0xBD)-160 (0xA0)
Формат : PCM
Параметр Endianness формата : Big
Параметр Sign формата : Signed
Режим смешивания : DVD-Video
Продолжительность : 17 м.
Вид битрейта : Постоянный
Битрейт : 1536 Кбит/сек
Каналы : 2 канала
Расположение каналов : Front: L R
Частота : 48,0 КГц
Битовая глубина : 16 бит
Задержка видео : -766 мс.
Размер потока : 192 Мбайт (19%)
Меню
Общее
Полное имя : F:\ШАРА F\CLIPS\AC-DC - Family Jewels\Disc 2 DVD-9 Brian Johnson\VIDEO_TS\VTS_02_4.VOB
Формат : MPEG-PS
Размер файла : 1024 Мбайт
Продолжительность : 17 м.
Общий поток : 8356 Кбит/сек
Видео
Идентификатор : 224 (0xE0)
Формат : MPEG Video
Версия формата : Version 2
Профиль формата : Main@Main
Параметр BVOP формата : Да
Параметр матрицы формата : Выборочная
Параметры GOP формата : M=3, N=15
Продолжительность : 17 м.
Вид битрейта : Переменный
Битрейт : 6654 Кбит/сек
Максимальный битрейт : 8264 Кбит/сек
Ширина : 720 пикс.
Высота : 480 пикс.
Соотношение сторон : 4:3
Частота кадров : 29,970 кадр/сек
Стандарт вещания : NTSC
Цветовое пространство : YUV
Подвыборка цветности : 4:2:0
Битовая глубина : 8 бит
Тип развёртки : Чересстрочная
Порядок развёртки : Верхнее поле первое
Метод сжатия : С потерями
Бит/(Пиксели*Кадры) : 0.642
Размер потока : 815 Мбайт (80%)
Аудио
Идентификатор : 189 (0xBD)-160 (0xA0)
Формат : PCM
Параметр Endianness формата : Big
Параметр Sign формата : Signed
Режим смешивания : DVD-Video
Продолжительность : 17 м.
Вид битрейта : Постоянный
Битрейт : 1536 Кбит/сек
Каналы : 2 канала
Расположение каналов : Front: L R
Частота : 48,0 КГц
Битовая глубина : 16 бит
Задержка видео : -410 мс.
Размер потока : 188 Мбайт (18%)
Меню
Общее
Полное имя : F:\ШАРА F\CLIPS\AC-DC - Family Jewels\Disc 2 DVD-9 Brian Johnson\VIDEO_TS\VTS_02_5.VOB
Формат : MPEG-PS
Размер файла : 1024 Мбайт
Продолжительность : 16 м.
Общий поток : 8683 Кбит/сек
Видео
Идентификатор : 224 (0xE0)
Формат : MPEG Video
Версия формата : Version 2
Профиль формата : Main@Main
Параметр BVOP формата : Да
Параметр матрицы формата : Выборочная
Параметры GOP формата : M=3, N=15
Продолжительность : 16 м.
Вид битрейта : Переменный
Битрейт : 6974 Кбит/сек
Максимальный битрейт : 8264 Кбит/сек
Ширина : 720 пикс.
Высота : 480 пикс.
Соотношение сторон : 4:3
Частота кадров : 29,970 кадр/сек
Стандарт вещания : NTSC
Цветовое пространство : YUV
Подвыборка цветности : 4:2:0
Битовая глубина : 8 бит
Тип развёртки : Чересстрочная
Порядок развёртки : Верхнее поле первое
Метод сжатия : С потерями
Бит/(Пиксели*Кадры) : 0.673
Размер потока : 822 Мбайт (80%)
Аудио
Идентификатор : 189 (0xBD)-160 (0xA0)
Формат : PCM
Параметр Endianness формата : Big
Параметр Sign формата : Signed
Режим смешивания : DVD-Video
Продолжительность : 16 м.
Вид битрейта : Постоянный
Битрейт : 1536 Кбит/сек
Каналы : 2 канала
Расположение каналов : Front: L R
Частота : 48,0 КГц
Битовая глубина : 16 бит
Задержка видео : -522 мс.
Размер потока : 181 Мбайт (18%)
Меню
Общее
Полное имя : F:\ШАРА F\CLIPS\AC-DC - Family Jewels\Disc 2 DVD-9 Brian Johnson\VIDEO_TS\VTS_02_6.VOB
Формат : MPEG-PS
Размер файла : 292 Мбайт
Продолжительность : 4 м. 49 с.
Общий поток : 8475 Кбит/сек
Видео
Идентификатор : 224 (0xE0)
Формат : MPEG Video
Версия формата : Version 2
Профиль формата : Main@Main
Параметр BVOP формата : Да
Параметр матрицы формата : Выборочная
Параметры GOP формата : M=3, N=15
Продолжительность : 4 м. 49 с.
Вид битрейта : Переменный
Битрейт : 6770 Кбит/сек
Максимальный битрейт : 8264 Кбит/сек
Ширина : 720 пикс.
Высота : 480 пикс.
Соотношение сторон : 4:3
Частота кадров : 29,970 кадр/сек
Стандарт вещания : NTSC
Цветовое пространство : YUV
Подвыборка цветности : 4:2:0
Битовая глубина : 8 бит
Тип развёртки : Чересстрочная
Порядок развёртки : Верхнее поле первое
Метод сжатия : С потерями
Бит/(Пиксели*Кадры) : 0.654
Размер потока : 233 Мбайт (80%)
Аудио
Идентификатор : 189 (0xBD)-160 (0xA0)
Формат : PCM
Параметр Endianness формата : Big
Параметр Sign формата : Signed
Режим смешивания : DVD-Video
Продолжительность : 4 м. 40 с.
Вид битрейта : Постоянный
Битрейт : 1536 Кбит/сек
Каналы : 2 канала
Расположение каналов : Front: L R
Частота : 48,0 КГц
Битовая глубина : 16 бит
Задержка видео : -362 мс.
Размер потока : 51,4 Мбайт (18%)
Меню
Общее
Полное имя : F:\ШАРА F\CLIPS\AC-DC - Family Jewels\Disc 2 DVD-9 Brian Johnson\VIDEO_TS\VTS_03_0.BUP
Формат : DVD Video
Профиль формата : Program
Размер файла : 18,0 Кбайт
Продолжительность : 11 с.
Общий поток : 13,4 Кбит/сек
Видео
Идентификатор : 224 (0xE0)
Формат : MPEG Video
Версия формата : Version 2
Продолжительность : 11 с.
Вид битрейта : Переменный
Ширина : 720 пикс.
Высота : 480 пикс.
Соотношение сторон : 4:3
Частота кадров : 29,970 кадр/сек
Стандарт вещания : NTSC
Метод сжатия : С потерями
Аудио
Идентификатор : 0 (0x0)
Формат : PCM
Продолжительность : 11 с.
Каналы : 2 канала
Частота : 48,0 КГц
Язык : English
Меню
Продолжительность : 11 с.
00:00:00.000 : Chapter 1
List (Audio) : 0
Общее
Полное имя : F:\ШАРА F\CLIPS\AC-DC - Family Jewels\Disc 2 DVD-9 Brian Johnson\VIDEO_TS\VTS_03_0.IFO
Формат : DVD Video
Профиль формата : Program
Размер файла : 18,0 Кбайт
Продолжительность : 11 с.
Общий поток : 13,4 Кбит/сек
Видео
Идентификатор : 224 (0xE0)
Формат : MPEG Video
Версия формата : Version 2
Продолжительность : 11 с.
Вид битрейта : Переменный
Ширина : 720 пикс.
Высота : 480 пикс.
Соотношение сторон : 4:3
Частота кадров : 29,970 кадр/сек
Стандарт вещания : NTSC
Метод сжатия : С потерями
Аудио
Идентификатор : 0 (0x0)
Формат : PCM
Продолжительность : 11 с.
Каналы : 2 канала
Частота : 48,0 КГц
Язык : English
Меню
Продолжительность : 11 с.
00:00:00.000 : Chapter 1
List (Audio) : 0
Общее
Полное имя : F:\ШАРА F\CLIPS\AC-DC - Family Jewels\Disc 2 DVD-9 Brian Johnson\VIDEO_TS\VTS_03_0.VOB
Формат : MPEG-PS
Размер файла : 114 Кбайт
Продолжительность : 400 мс.
Общий поток : 2335 Кбит/сек
Видео
Идентификатор : 224 (0xE0)
Формат : MPEG Video
Версия формата : Version 2
Профиль формата : Main@Main
Параметр BVOP формата : Да
Параметр матрицы формата : Выборочная
Продолжительность : 400 мс.
Максимальный битрейт : 2000 Кбит/сек
Ширина : 720 пикс.
Высота : 480 пикс.
Соотношение сторон : 4:3
Частота кадров : 29,970 кадр/сек
Стандарт вещания : NTSC
Цветовое пространство : YUV
Подвыборка цветности : 4:2:0
Битовая глубина : 8 бит
Тип развёртки : Чересстрочная
Порядок развёртки : Верхнее поле первое
Метод сжатия : С потерями
Текст
Идентификатор : 189 (0xBD)-32 (0x20)
Формат : RLE
Формат/Информация : Run-length encoding
Режим смешивания : DVD-Video
Задержка видео : -66 мс.
Меню
Общее
Полное имя : F:\ШАРА F\CLIPS\AC-DC - Family Jewels\Disc 2 DVD-9 Brian Johnson\VIDEO_TS\VTS_03_1.VOB
Формат : MPEG-PS
Размер файла : 8,42 Мбайт
Продолжительность : 10 с.
Общий поток : 6440 Кбит/сек
Видео
Идентификатор : 224 (0xE0)
Формат : MPEG Video
Версия формата : Version 2
Профиль формата : Main@Main
Параметр BVOP формата : Да
Параметр матрицы формата : Выборочная
Параметры GOP формата : M=3, N=15
Продолжительность : 10 с.
Вид битрейта : Переменный
Битрейт : 4775 Кбит/сек
Максимальный битрейт : 8000 Кбит/сек
Ширина : 720 пикс.
Высота : 480 пикс.
Соотношение сторон : 4:3
Частота кадров : 29,970 кадр/сек
Стандарт вещания : NTSC
Цветовое пространство : YUV
Подвыборка цветности : 4:2:0
Битовая глубина : 8 бит
Тип развёртки : Чересстрочная
Порядок развёртки : Верхнее поле первое
Метод сжатия : С потерями
Бит/(Пиксели*Кадры) : 0.461
Размер потока : 6,23 Мбайт (74%)
Аудио
Идентификатор : 189 (0xBD)-160 (0xA0)
Формат : PCM
Параметр Endianness формата : Big
Параметр Sign формата : Signed
Режим смешивания : DVD-Video
Продолжительность : 10 с.
Вид битрейта : Постоянный
Битрейт : 1536 Кбит/сек
Каналы : 2 канала
Расположение каналов : Front: L R
Частота : 48,0 КГц
Битовая глубина : 16 бит
Задержка видео : -66 мс.
Размер потока : 2,01 Мбайт (24%)
1963 году, Уильям Янг и Маргарет Янг эмигрировали в Австралию практически всей своей многодетной семьёй, забрав с собой восемь (из девяти) детей. Они поселились на юго-востоке страны в красивом и живописном городе Сиднее, что находится в штате Новый Южный Уэльс, сами не зная, что написали, таким образом, предисловие к золотой книге австралийского рок-н-ролла.
Первым из семьи Янгов в музыку "ударился" старший сын - Джордж. Он организовал группу "Easybeats" совместно со своим приятелем Гарри Вандой. Команда имела локальный успех и, прожив недолгую творческую жизнь, распалась. Однако, её успех впоследствии оказал огромное влияние на младших братьев Джорджа Янга: Малькольма и Ангуса. Малькольм начал осваивать гитару первым, очень быстро выучившись с акустической на электрическую. Внимательно вникая в полезные советы своего старшего брата Джорджа, Малькольм стремительно добился сумасшедшего прогресса. Неожиданно, Ангус тоже заинтересовался музыкой и начал учиться играть на гитаре, используя в качестве "подручного" средства инструмент Малькольма, до тех пор, пока мать не сделала ему долгожданный подарок.
Решение о создании собственной группы пришло Малькольму в голову после того, как группа, где он играл раньше ("Velvet Underground"), "канула в небытие". Первоначальный состав ему виделся следующим: гитарист и клавишник. Позже, Малькольм меняет свою точку зрения, подумав, что ему нужен ещё один гитарист для того, чтобы "расширить" звук. Он обратился за помощью к Ангусу. Будущий имидж группы виделся Малькольму следующим образом: жёсткий отточенный звук буги и противоположный моде сценический образ (длинные волосы и стоптанные ботинки). Для начала Малькольм приглашает ударника Колина Бургесса, у которого уже был опыт с несколькими командами, бас-гитариста Ларри Ван Кнедта и вокалиста Дэйва Эванса.
Их название ("AC/DC") было взято с таблички с обратной стороны пылесоса: "AC/DC", это сделает что-нибудь с электричеством". Окончательный имидж группы сформировался после того, как сестра Ангуса Маргарет посоветовала своему брату надеть школьную форму для выступления на сцене. Так сформировался сценический образ группы, впоследствии превратившийся в визуальный фирменный знак, "торговую марку" "AC/DC". Первое выступление группы состоялось в канун Нового Года, 31 декабря 1973 года, в маленьком сиднейском баре "Chequers" (где в своё время выступал Фрэнк Синатра). Так родилась группа, которой в будущем было суждено покорить сердца и уши миллионов меломанов по всему миру.
В следующие шесть месяцев, последовавших за первым выступлениемм "AC/DC", состав группы значительно изменился. Ударника Колина Бургесса благополучно и последовательно заменили Рон Карпентер, Рассел Коулман и, наконец, Питер Клак. Роб Бэйли заменил бас-гитариста Ларри Ван Кнедта. В июне 1974 года "AC/DC" записывает свой первый сингл в Сиднее на студии "Albert Studios". Были записаны композиции: "Can I Sit Next To You Girl" и "Rockin'' In The Parlour". Продюсерами выступили Гарри Ванда и Джордж Янг. Сингл был издан сначала в Австралии в течение июля на "Albert Studios", а затем в Новой Зеландии на "Polydor". Он стал незначительным "региональным" хитом в Перте и Аделаиде.
Затем начался тяжёлый клубный тур по Австралии. В Мельбурне "AC/DC" выступает в "Hard Rock Cafe", владельцем которого был Майкл Браунинг. Ребята понравились ему, и Майкл стал менеджером "AC/DC". Браунинг доказал свою проницательность, приняв несколько важных и насущных решений для группы в течение последующих нескольких лет. Его первым и наиболее успешным решением было нанять водителя для того, чтобы можно было перевозить группу по стране.
Водителем был выбран Рональд Белфорд Скотт, более известный под именем Бон. У Скотта кроме водительского имелся уже и музыкальный опыт, так как он играл на ударной установке и успел поработать с несколькими известными австралийскими командами. "Звёздный" час Бона пробил однажды сентябрьской ночью 1974 года, когда вокалист "AC/DC" Дэйв Эванс отказался выйти на сцену и потребовалась срочная замена. Известный своим небольшим криминальным прошлым, Бон Скотт стал фронтменом "AC/DC". За сменой вокалиста в составе произошло ещё несколько изменений. Тони Карренти пересел за ударные вместо Питера Клака, а Роба Бэйли заменил на бас-гитаре небезызвестный Джордж Янг.
В январе 1975 года "AC/DC" записывает свой дебютный альбом в Австралии под названием "High Voltage", который вышел в феврале 1975 года. "High Voltage" имел немедленный успех в Австралии. Первый сингл из альбома, записанный в лучших блюзовых традициях Джо Уильямса ("Baby Please Don''t Go") сразу же стал визитной карточкой "AC/DC" с первого же дня. Альбом и его первый сингл ворвались в австралийский чарт в марте 1975 года.
В июне 1975 года выпускается сингл "High Voltage" (первоначально записанный для альбома "High Voltage", но не завершённый к моменту выхода альбома). Сингл был исполнен впервые в мельнбурском "Festival Hall". Выступление группы было заснято на видео (с использованием четырёх камер) с целью производства фильма, с помощью которого можно было бы произвести "раскрутку" группы за границей. Конечная цель такого "промоушна" - привлечь внимание крупных заокеанских рекординговых компаний. Несмотря на успех дебютного альбома, кадровая политика группы нацелена на поиск оптимального и устойчивого состава. Очередные изменения происходят, когда на позиции бас-гитариста и ударника приходят соответственно Марк Эванс и Фил Рууд.
Следующий альбом "AC/DC" под названием "T.N.T." издаётся в конце 1975 года. Он имел огромный успех, так как было продано 100.000 экземпляров. Группа открыла себе дорогу на пути к успеху. Правда, до мирового уровня ещё было рановато.
В то время, как популярность "AC/DC" в Австралии росла такими темпами, что даже сами ребята не могли себе предположить в своих самых сладких грёзах, все попытки добиться мирового признания не приносили плодов. Для этого нужно было заручиться поддержкой именитой рекординговой компании, способной выпускать альбомы группы крупными тиражами, имеющей авторитет и опыт в музыкальной индустрии и маркетинговую поддержку продаж альбомов. Майкл Браунинг, который стремился удовлетворить амбиции группы, нашел такую поддержку в лондонском офисе европейского филиала известной американской записывающей компании "Atlantic Records". Весной 1976 года "AC/DC" подписывает контракт с этой компанией. Группа решает, что для успешного продолжения карьеры необходимо сменить резиденцию и переехать в Великобританию.
Тем временем, "AC/DC" записывает свой очередной (третий по счёту) альбом в Австралии. Первый сингл альбома (сторона А) называется "Jailbreak", второй сингл (сторона В) - "Fling Thing" (традиционная шотландская фолк-композиция, аранжировку которой сделали Малькольм и Ангус). Альбом вышел в сентябре 1976 года в Австралии и назывался "Dirty Deeds Done Dirt Cheap".
Когда команда приехала в Великобританию, панк-рок уже захлестнул нацию. Первое "живое" выступление "AC/DC" на британской земле прошло в апреле 1976 года в пабе "Red Cow", расположенном в Хаммерсмите (Западный Лондон). За этим последовали выступления ещё в нескольких маленьких клубах. Перед тем, как начать тур по большим площадкам, "AC/DC" выступает в качестве "разогревающей" группы перед "Back Street Crawlers". Последовавший за этим тур имел неплохой успех для "AC/DC". В конце тура (май 1976 года), британское подразделение "Atlantic Records" выпускает европейский вариант альбома "High Voltage" в Великобритании. Европейская версия представляла собой смесь композиций из первых двух австралийских альбомов группы. Отправив свой первый "официальный" европейский альбом на британский рынок, группа организовала тур по Великобритании (было намечено 20 выступлений) под шутливым названием "Lock Up Your Daughters" ("Заприте своих дочерей"). Тур имел громадный успех, даже несмотря на то, что несколько концертов прошли при низкой посещаемости.
В июле 1976 года "AC/DC" посещает лондонский клуб "Marquee Club", где еженедельно по понедельникам происходили выступления с участием известных групп. Концерты обычно собирали более 1.000 человек, в то время как официальная вместимость клуба составляла не более 700 человек. Выступления в "Marquee Club" твёрдо доказали, что "AC/DC" - единственная группа в Лондоне, которая оказалась в состоянии предложить на суд слушателям что-нибудь интересное и захватывающее в 1976 году, играя при этом не панк-рок. Данный успех не оставил группу без внимания. "AC/DC" было предложено совершить тур по Европе (в котором было запланировано 18 выступлений) совместно с Ричи Блэкмором в поддержку его проекта "Rainbow". Этому предшествовали три выступления в Германии в качестве "хэдлайнеров". 29 августа группа отыграла своё самое крупное шоу в Англии на рок-фестивале в Ридинге. Однако, в выступлении группы вышла небольшая осечка, больше из-за того, что зрители были мало сконцентрированы на концерте и вяло реагировали на выступление "AC/DC".
В 1976 году в Великобритании был издан альбом "Dirty Deeds Done Dirt Cheap". В британском варианте альбома отсутствуют композиции "Jailbreak" и "R.I.P. (Rock In Peace)". Их заменили на композиции "Rocker" (из альбома "T.N.T.") и ранее не изданную "Love At First Feel", которую группа собиралась выпустить в Австралии в 1977 году.
В декабре "AC/DC" возвращается в Австралию для участия в туре по стране, которым было отмечено возвращение группы после восьмимесячного отсутствия. "AC/DC" встречали как "героев-покорителей" Европы. После тура группа взяла себе небольшой перерыв на Рождество. "AC/DC" остаётся в Австралии ещё на два первых месяца 1977 года для записи своего нового альбома "Let There Be Rock" на "Albert Studios" в Сиднее. После нескольких выступлений в Сиднее, Мельбурне и Аделаиде ребята возвращаются в Британию в феврале 1977 года для начала очередного тура по стране.
За туром сразу же следует предложение совершить ещё один тур (по Европе) совместно с "Black Sabbath". К сожалению, между бас-гитаристом "Black Sabbath" Джизером Батлером и Малькольмом Янгом возникает ссора. "AC/DC" исключают из тура, участники группы вынуждены возвратиться в Лондон. В конце июня 1977 года непонимание возникает уже внутри группы. Марк Эванс, сославшись на то, что он измотан и устал от бесконечных туров, покидает "AC/DC". После ряда переговоров, менеджер "AC/DC" Майкл Браунинг договаривается с бывшим бас-гитаристом группы "Home" Клиффом Уильямсом. Между ними был подписан контракт, и Клифф становится полноправным участником "AC/DC". Следующим шагом "покорения мира" стало "завоевание" Соединённых Штатов Америки.
Тем временем, британская версия "High Voltage" издаётся в США в течение октября 1976 года. А в июне месяце готовится выпуск альбома "Let There Be Rock" (как раз за четыре месяца до выпуска в Европе и три месяца спустя выхода альбома в Австралии).
Первый тур по США начался в южной части страны летом и закончился зимой. Во Флориде группа отыграла свой первый большой концерт по ту сторону Атлантического океана перед 13.000 слушателей на открытой площадке в "Hollywood Spartatorium". Тур "AC/DC" достиг апогея в Нью-Йорке (выступления в "Palladium" и клубе "CBGB"). В "Palladium" Ангус впервые использует гитару без шнура.
В октябре альбом "Let There Be Rock", записанный в январе-феврале 1977 года, наконец-то "увидел свет" в Британии после нескольких продолжительных задержек. Американский тур срочно прерывается осенью в пользу ещё одного тура по Великобритании и Европе с целью "раскрутки" нового альбома. Как и ожидалось, в этот период "AC/DC" гастролирует исключительно в качестве "хэдлайнеров". В ноябре-декабре 1977 года, вернувшись в США и продолжив прерванный тур, группа выступает вместе с "Rush" и "Kiss". В декабре 1977 года "AC/DC" даёт выступление в радиоэфире на студии "Atlantic Records" на Бродвее. Оно записывается на плёнку, но издаётся лишь двадцать лет спустя.
После ставших традиционными новогодних каникул в Сиднее, группа возвращается в "Albert Studios" к Гарри Ванде и Джорджу Янгу для записи очередного альбома в течение февраля-марта 1978 года. Альбом под названием "Powerage" был издан в Великобритании в апреле 1978 года. Мировой тур в поддержку нового альбома прошёл 28 концертами по Британии. После этого "AC/DC" вылетает в США, где выступает с "Rainbow", "Savoy Brown", Элисом Купером, "Journey", "Aerosmith", "Scorpions" и "UFO". С июня по октябрь группа отыграла 76 концертов в Соединённых Штатах, выступая как в маленьких клубах, так и появившись на престижном фестивале "Day On The Green" (под открытым небом) в Сан-Франциско в августе. Репутация "AC/DC" в Штатах значительно возросла.
Дизайн брошюры к "The Powerage World Tour" представлял собой обложку к будущему и долгожданному "живому" альбому "If You Want Blood You''ve Got It", который был записан в течение первых месяцев 1978 года и издан к концу американского тура в октябре (через шесть месяцев после выхода "Powerage"). "AC/DC" начинает "промоушн" нового альбома, отправившись в тур по Великобритании в начале ноября, отыграв за 18 дней 16 концертов. Популярность группы значительно укрепляется.
Альбом "If You Want Blood You''ve Got It" закрывает первую главу славной истории "AC/DC". Компания "Atlantic Records" посоветовала сменить продюсера. Первой кандидатурой на эту роль выступил Эдди Крамер, который в последнее время работал с Джими Хендриксом, "Kiss" и "Led Zeppelin". Однако, на роль продюсера нового альбома выбирается Роберт Джон Лэндж (по прозвищу "Болван"). Лэндж (родом из Южной Африки) начинал свой путь в шоу-бизнес в качестве певца и автора песен, впоследствии сев за микширующий пульт. Перед "AC/DC" он работал с Грэхэмом Паркером, "City Boy", "Boomtown Rats", "Outlaws" и "Thin LIzzy".
Поменяв продюсера, группа также поменяла и студию, переехав в "Roundhouse Studios" в Чолк-Фарм в Лондоне. Эти изменения были вызваны переменами в менеджементе группы, так как Майкла Браунинга заменил Питер Менш из солидной организации "Leber and Krebs", что базируется в Нью-Йорке.
Британская часть тура прошла в Ньюкасле, Глазго, Ливерпуле, Стэффорде и Лондоне (в "Hammersmith Odeon") при поддержке группы "Def Leppard". В августе 1979 года "AC/DC" играет свой самый крупный концерт в Великобритании. Это событие прошло в Лондоне на легендарном стадионе "Wembley Arena" перед выступлением "The Who". Несмотря на проблемы со звуком, концерт оказал несомненное влияние на расширение армии фанатов группы. Благодаря выступлению на "Wembley Arena", группа заслужила доверие, что способствовало проведению ещё нескольких выступлений с "The Who".
Перед очередными рождественскими каникулами в Австралии, "AC/DC" совершает обширный тур по Европе. Группа закончила год выступлением в Париже, которое было заснято на видео. Фильм получил название "Let There Be Rock". Видео было отснято французскими режиссёрами: Эриком Дионисиусом и Эриком Мистлером. Фильм состоял из фрагментов "живого" выступления "AC/DC", интервью и отдельных эпизодов с участниками группы. Группа даёт два выступления в Ньюкасле и Саутгемптоне, которые были ранее отменены во время британского тура. Группа также "засветилась" на британском ТВ в программе "Top of the Pops" с целью "раскрутки" нового сингла "Touch Too Much".
Поезд под названием "AC/DC", стремительно набравший ход и шедший на всех парах с сумасшедшей скоростью на пути к успеху, сошёл с рельс 20 февраля 1980 года... Сообщение, прозвучавшее 21 февраля 1980 года по лондонскому радио "ВВС" разорвало сердца большинства поклонников группы: "Тело 33-летнего Бона Скотта было найдено мёртвым в припаркованной машине в Дулвиче, Южный Лондон".
Окончательный вердикт был следующим: "Смерть в результате несчастного случая - Сильное алкогольное отравление". Проще говоря, Бон Скотт (после ночи употребления алкоголя) захлебнулся во сне собственной рвотой. Прах Бона Скотта похоронен на "Fremantle Cemetery''s Memorial Garden".
Нет нужды описывать состояние, в котором оказались участники "AC/DC" в течение первых месяцев со дня смерти Бона Скотта. Все были подавлены и разбиты. Решался вопрос: продолжать с новым вокалистом или разойтись. Естественно, "AC/DC" уже никогда не станет такой же группой, какой она была с Боном, так как с его смертью умерла частичка "AC/DC". В конце концов, Малькольм и Ангус решили, что Бон на их месте продолжил бы. Поэтому, собравшись с духом, группа начинает поиски нового вокалиста. Тем более, в это время уже ходило достаточно слухов о том, кто же может занять место вокалиста в "AC/DC". В результате долгих и тщательных поисков было объявлено, что новым фронтменом группы станет Брайан Джонсон (экс-"Geordie").
Перед началом новых гастрольных туров, "AC/DC" необходимо было закончить работу над новым альбомом. Необходимо было работать быстро и упорно, чтобы наверстать упущенное время. Поэтому, репетиции в "E''Zee Hire Studios" в Северном Лондоне проходили в тяжёлых условиях и по очень строгому расписанию. Группа работала по семь часов ежедневно без выходных до середины апреля. Когда материал был готов, началась запись альбома, которая проходила на студии "Compass Point Studios" (на Багамах) под чутким руководством Роберта Лэнджа. Альбом записывался в течение апреля-мая на протяжении шесть недель и был готов к концу мая.
Альбом "Back In Black" был издан в конце июля 1980 года. Ребята из "AC/DC" "поставили на чёрное" и не прогадали... Обновлённая группа снова начала пробивать путь к успеху. "AC/DC" начинает тур по Штатам на два месяца, а затем - по Великобритании (ноябрь) и, наконец, возвращается в Австралию (декабрь). 1981 год начинается с концертного тура по Японии и Австралии.
Впервые в истории группы, её выступление происходило в форме зрелища. Основным элементом шоу был подвешенный над сценой с помощью гигантского подъёмного крана колокол с отчеканенным логотипом "AC/DC" на нём. В начале каждого выступления Брайан Джонсон бил в этот колокол молотом. Хотя это и было против политики "AC/DC", которая заключалась в отсутствии каких-либо элементов зрелища, всё же было принято решение оставить "живой" колокол, который особенно уместен был во время исполнения композиции "Hell Bells".
Учитывая огромный рост популярности "AC/DC", а также спрос на "продукцию" творчества группы, "Atlantic Records" наконец-то издаёт в США альбом "Dirty Deeds Done Dirt Cheap" в мае 1981 года. В августе 1981 года группе представляется шанс выступить в качестве "хэдлайнеров" на втором ежегодном фестивале "Монстры рока" в Кастл Донингтоне. Правда, участники группы испытали большие проблемы со звуком. Дело в том, что было подготовлено аппаратуры на 50.000 человек. На самом же деле пришло около 80.000. Но степень потери качества звука была определена позже, поэтому "AC/DC" получает удовольствие от выступления, так как это был шанс немного "передохнуть" и настроиться перед серией репетиций и рекординговой сессией.
Альбом под названием "For Those About To Rock" был издан в ноябре 1981 года. Он сразу же имел огромный коммерческий успех. Популярность группы в Америке продолжает подниматься. Обширный тур по Штатам доказал, что "AC/DC" может собирать огромную аудиторию как никогда. Тур "Cannon and Bell" достиг Великобритании в конце сентября 1982 года. К этому времени "AC/DC" выступает на открытых аренах.
После ряда туров в 1982 году, группа берёт длительный перерыв. Это было за несколько месяцев до начала записи нового альбома. "AC/DC" отправляется в "Compass Point Studio" в Нассау (Багамы). На полпути рекординговой сессии был уволен Фил Рууд. Новый альбом "AC/DC" был смонтирован и смикширован Тони Платтом. Продюсером выступила сама группа. Альбом "Flick Of The Switch" был издан в августе 1983 года. Но всё же альбом оказался относительным коммерческим промахом. По возвращении в Лондон, группа начинает искать замену Филу Рууду. После целого ряда испытаний, был отобран Саймон Райт (экс-"A II Z" и "Tytan"). Его "живой" дебют состоялся в Ванкувере, Канада.
На протяжении зимы "AC/DC" ездит с турами по Штатам и Канаде. После этого "AC/DC" даёт ещё несколько концертов по Европе. Однако, самый большой фестиваль из всех состоялся в январе 1985 года в Бразилии ("Рок в Рио"). "AC/DC" выступает два дня подряд перед аудиторией в 400.000 человек. В фестивале также приняли участие: "Queen", "Scorpions", Оззи Осборн, "Yes", "Iron Maiden" и "Whitesnake".
Вернувшись на несколько месяцев назад (в ноябрь 1984 года), хочется отметить, что новый альбом под названием "''74 Jailbreak" был издан в США. В него вошли пять старых композиций эры Бона Скотта, которые ранее не издавались в США и были взяты из австралийских версий альбомов "High Voltage" и "Dirty Deeds Done Dirt Cheap".
После Рио-де-Жанейро группа взяла еще один длительный перерыв. Весной 1985 года "AC/DC" собирается для записи нового альбома в "Mountain Studios" возле Монтре в Швейцарии. Удовлетворившись качеством звука, которого им удалось добиться во время записи альбома "Flick Of The Switch", Малькольм и Ангус решают снова продюсировать альбом самостоятельно.
Альбом "Fly On The Wall" был издан в июне 1985 года. В дополнение к альбому было отснято 28-минутное видео под названием "Fly On The Wall", в котором было представлено пять композиций из альбома. Фильм был отснят во время выступления "AC/DC" в небольшом нью-йоркском клубе и был переполнен подозрительными и странноватыми героями. Мировой тур "Fly On The Wall" начался с ещё одного визита в Соединённые Штаты. В январе 1986 года, "AC/DC" с аншлагом даёт 8 концертов в Британии и ещё 18 в Бельгии, Голландии, Германии, Швейцарии и Скандинавии до середины февраля.
Во время американского тура в 1985 году "AC/DC" знакомится с американским писателем, "мастером ужасов" Стивеном Кингом, который, кстати, является большим фанатом группы. Стивен поинтересовался у ребят, может ли он использовать что-нибудь из старого материала "AC/DC" для саундтрека к своему фильму "Максимальное ускорение". Он также попросил "AC/DC" записать несколько новых композиций. Запись проходит в студии "Compass Point Studios" в Нассау после окончания американского тура. Снова альбом продюсируют Гарри Ванда и Джордж Янг, так как последние попытки самостоятельного продюсирования альбомов с треском провалились.
Последний раз Гарри и Джордж работали с "AC/DC" над альбомом "If You Want Blood You''ve Got It". Всего лишь за две недели было записано три новых композиции: "Who Made Who", "D.T." и "Chase The Ace". Альбом "Who Made Who" был выпущен в мае 1986 года и стал одним из лучших хитов группы. "AC/DC" снова отправляется в США в июле. Первоначально планировалось закончить тур в сентябре, но он был продлён до ноября. В конце тура группа взяла перерыв на два месяца перед началом записи нового альбома.
После тщательных и активных поисков студии, "AC/DC" останавливается на "Miraval" на юге Франции. Официально запись началась в августе 1987 года. Гарри Ванда и Джордж Янг, которые не работали с группой почти 10 лет, вновь становятся продюсерами альбома. Во время сессии было записано 19 композиций, но после того, как материал был отправлен на доработку в Нью-Йорк для микширования в течение осени, только 10 "сильнейших" композиций "выжило". Альбом "Blow Up Your Video" был издан в конце января 1988 года.
Группа начинает репетиции без ударника в Брайтоне. В ноябре 1989 года по совету менеджера был взят на временную работу Крис Слейд (экс-"Manfred Mann''s Earth Band"). Работа над альбомом продолжалась и решено было оставить Криса в составе. После репетиций в Брайтоне "AC/DC" отправляется в "Windmill Road Studios" в Ирландию для начала работы над альбомом. На этот раз группа выбирает канадского продюсера Брюса Фэйрберна. Альбом был завершён в течение шести недель на "Little Mountain Studios" в Ванкувере, Канада. Альбом под названием "The Razors Edge" был издан под новым "лэйблом" "Atco" в сентябре 1990 года. В течение всего этого времени, было издано два видеосборника. "Who Made Who" представлял собой фильм, охватывающий период из жизни группы в 1980-1986 годах. А "Clipped" включал в себя видео с альбомов "Blow Up Your Video" и "The Razors Edge".
Мировой тур "The Razors Edge" начался в Америке, переключившись затем на Европу. После Европы "AC/DC" возвращается в Штаты, чтобы начать третий этап мирового тура. В августе группа уже опять в Европе для того, чтобы принять участие в фестивале "Монстры рока" в Кастл Донингтоне, а также ещё в серии из 20 фестивалей по всему континенту (в 18 городах).
Данный тур включал в себя одно бесплатное выступление, которое состоялось в Москве. Московский концерт был представлен как "праздник демократии и свободы" и был своеобразным подарком советской молодёжи за их сопротивление попытке недавно провалившегося государственного военного переворота. Выступление было записано на видео под руководством Уэйна Ишама. Московский концерт стал особенно выдающимся событием в культурной жизни страны в свете того, что большинство западной рок-музыки было запрещено и практически объявлено вне закона. В то же время, музыка "AC/DC" была достаточно популярна среди советской молодёжи, а записи группы можно было достать только на "чёрном" рынке.
Выпуск первого "живого" альбома "AC/DC" с участием Брайана Джонсона был запланирован на конец октября 1992 года. Он продюсировался Брюсом Фэйрберном и был назван просто "Live". Альбом был издан в 4 разных форматах: простой (14 композиций) и двойной (23 композиции) CD и простая (14 композиций) и специально упакованная двойная (23 композиции) кассета. В дополнение ко всему, в конце года вышло видео "AC/DC Live At Donington". Фильм, снятый на качественной 35-миллиметровой плёнке, великолепно передал атмосферу "живого" выступления "AC/DC" более естественным образом, чем предшествующий "Let There Be Rock".
На протяжении лета 1993 года "AC/DC" записывает новую композицию - "Big Gun". Песня была записана специально для саундтрека к фильму "Последний киногерой" (с Арнольдом Шварценеггером в главной роли). Продюсером "Big Gun" выступил Рик Рубин. Композиция была издана как сингл компанией "Аtco" в конце июня 1993 года.
В начале 1995 года поползли активные слухи о том, что Фил Рууд возвращается в "AC/DC". Ещё в конце тура "The Razors Edge" (в 1991 году) Фил посетил концерт "AC/DC" в Окленде (Новая Зеландия) и потратил затем несколько часов, общаясь с участниками. Это была его первая встреча с группой с 1983 года.
В 1994 году "AC/DC" начали репетиции для записи нового альбома в Англии. В мае Малькольм позвонил Филу и попросил его опять сесть за ударную установку для работы над альбомом и последующего за этим мирового тура. Фил ответил, что он серьёзно подумает об этом и посоветуется с женой. В итоге Фил решил, что его место - в "AC/DC". Группа начала работу над новым альбомом в Нью-Йорке, но, не удовлетворившись звуком, решили переехать в Лос-Анджелес в "Ocean Way Studios". Там группа нашла тот уровень и то качество звука, которое искала. После успеха "Big Gun" продюсером был выбран Рик Рубин.
В первые дни сентября 1995 года вышел первый сингл нового альбома - "Hard As A Rock". Сам альбом под названием "Ballbreaker" вышел в сентябре 1995 года. Тур "Ballbreaker" начинается в США в январе 1996 года при поддержке группы "The Poor". Начав с композиции "Back In Black", группа исполнила композиции, записанные первоначально с Боном Скоттом: "Shot Down In Flames", "Girls Get Rhytm", "Dog Eat Dog", "Down Payment Blues" плюс композиции нового альбома. Во время выступлений, "AC/DC" проводит на сцене
- -
Download / Скачать

Хотите скачать бесплатно? Зарегистрируйтесь на сайте (ссылка на регистрацию). Pirat.ca - самый быстрый торрент трекер в рунете!

Как скачивать  ·   Что такое торрент  ·   Рейтинг и ограничения

Romets

Лоцман

Пост 10-Сен-2012 12:45 (спустя 4 месяца 11 дней)

[Q] 

Класс!!!!
[Профиль]  [ЛС] 

DmMur

Морской Волк

Пост 10-Ноя-2012 16:47 (спустя 2 месяца)

[Q] 

Дайте скачать! ПЛЗ
[Профиль]  [ЛС] 

kufre ®

Корсар

3189

Пост 19-Ноя-2012 13:05 (спустя 8 дней)

[Q] 

На раздаче

_________________
[Профиль]  [ЛС] 

DmitryMur

Лоцман

Пост 10-Дек-2012 14:27 (спустя 21 день)

[Q] 

[Профиль]  [ЛС] 

koolega77

Морской Волк

Пост 02-Мар-2013 12:21 (спустя 2 месяца 22 дня)

[Q] 

AC/DC вещь !!!
[Профиль]  [ЛС] 

kolobok0

Морской Волк

152

Пост 03-Май-2013 14:37 (спустя 2 месяца 1 день)

[Q] 

[Профиль]  [ЛС] 

sgssgs

Штурман

Пост 15-Окт-2013 09:05 (спустя 5 месяцев 11 дней)

[Q] 

Вернитесь на раздачу!
Дайте докачать, осталось 7%, пожалуйста.
[Профиль]  [ЛС] 
Показать сообщения:    
Ответить на тему

Текущее время: Сегодня 20:44

Часовой пояс: GMT + 4



Вы не можете начинать темы
Вы не можете отвечать на сообщения
Вы не можете редактировать свои сообщения
Вы не можете удалять свои сообщения
Вы не можете голосовать в опросах
Вы не можете прикреплять файлы к сообщениям
Вы не можете скачивать файлы

Майнать ▼