ML
     
  Уважаемый Гость!
Вы можете поддержать проект и зарегистрироваться у наших партнеров - онлайн-стратегия MyLands. При регистрации в игре Вы получите код, который сможете активировать после регистрации на pirat.ca и получить 1000 дублонов.

Ваш код:
93dbf9fbdfa06c41d3b5a2c3921149ba36168c41
 
     

Примета на счастье (Екатерина Шагалова) [2012 г., мелодрама, SATRip]

Ответить на тему
 
Автор
Сообщение

Пост 17-Июн-2012 20:56

[Q] 

UA4HQW

Флибустьер

Примета на счастье
Год выпуска: 2012
Российская премьера: 17 июня 2012 телеканал"Россия"
Производство: Россия
Жанр: мелодрама
Продолжительность: 01:24:07
Режиссер: Екатерина Шагалова
В ролях
Наталья Терехова, Алексей Осипов, Олег Васильков, Николай Шульга, Галина Кухальская, Ольга Бурлакова, Анжела Кораблева, Елена Боярова, Александр Финевич, Андрей Карако, Ольга Нефедова, Игорь Николаев, Любовь Румянцева, Инна Дубок, Диана Иванова, Алена Иванникова
Описание
Тридцатилетнюю Ольгу, жительницу маленького городка, судьба не балует. Она растит в одиночку сына Славика, едва сводит концы с концами. Отец Славика, местный алкоголик Дмитрий, материально не помогает. Наоборот, регулярно приходит к Ольге, клянчит деньги, бывает, что и поколачивает. Ещё на попечении у Ольги пожилая мать, которая с трудом справляется со Славиком, когда Ольга в отъезде. А в отъезде она часто: Ольга работает официанткой в вагоне ресторане. И здесь весёлого мало: начальник поезда пристаёт, постоянно намекает, что если Ольга не станет сговорчивее, то будет уволена. Однажды, когда начальник поезда в очередной раз распускает руки, за Ольгу вступается пассажир - молодой мужчина Анатолий...
Сэмпл , КиноПоиск
Источник/Качество: SATRip
Формат: AVI
Видео кодек: DivX
Аудио кодек: MP3
Видео: 720x400 (1.80:1), 25 fps, DivX Codec 6.8.5/6.9.1 ~1950 kbps avg, 0.27 bit/pixel
Аудио: 48 kHz, MPEG Layer 3, 2 ch, ~256.00 kbps avg
Общее
Полное имя : Primeta.na.Schastye.2012.DivX.SATRip.avi
Формат : AVI
Формат/Информация : Audio Video Interleave
Размер файла : 1,31 Гбайт
Продолжительность : 1 ч. 24 м.
Общий поток : 2216 Кбит/сек
Программа кодирования : VirtualDubModRus 1.5.10.1 (build 2439/release)
Библиотека кодирования : VirtualDubMod build 2439/release
Видео
Идентификатор : 0
Формат : MPEG-4 Visual
Параметр BVOP формата : 1
Параметр QPel формата : Нет
Параметр GMC формата : Без точки перехода
Параметр матрицы формата : Default (H.263)
Режим смешивания : Сжатый битовый поток
Идентификатор кодека : DX50
Идентификатор кодека/Подсказка : DivX 5
Продолжительность : 1 ч. 24 м.
Битрейт : 1951 Кбит/сек
Ширина : 720 пикс.
Высота : 400 пикс.
Соотношение сторон : 16:9
Частота кадров : 25,000 кадр/сек
Цветовое пространство : YUV
Подвыборка цветности : 4:2:0
Битовая глубина : 8 бит
Тип развёртки : Прогрессивная
Метод сжатия : С потерями
Бит/(Пиксели*Кадры) : 0.271
Размер потока : 1,16 Гбайт (88%)
Библиотека кодирования : DivX 6.8.5 (UTC 2009-08-20)
Аудио
Идентификатор : 1
Формат : MPEG Audio
Версия формата : Version 1
Профиль формата : Layer 3
Режим : Joint stereo
Идентификатор кодека : 55
Идентификатор кодека/Подсказка : MP3
Продолжительность : 1 ч. 24 м.
Вид битрейта : Постоянный
Битрейт : 256 Кбит/сек
Каналы : 2 канала
Частота : 48,0 КГц
Метод сжатия : С потерями
Размер потока : 155 Мбайт (12%)
Выравнивание : Разделение по промежуткам
Продолжительность промежутка : 40 мс. (1,00 видеокадр)
Время предзагрузки промежутка : 500 ms
Download / Скачать

Хотите скачать бесплатно? Зарегистрируйтесь на сайте (ссылка на регистрацию). Pirat.ca - самый быстрый торрент трекер в рунете!

Как скачивать  ·   Что такое торрент  ·   Рейтинг и ограничения

nadabibak

Гроза морей

Пост 17-Июн-2012 21:40 (спустя 43 минуты)

[Q] 

Спасибо за релиз
[Профиль]  [ЛС] 

black phantom

Штурман

Пост 20-Июн-2012 21:03 (спустя 2 дня 23 часа)

[Q] 

Автору спасибо, но фильм честно говоря не понравился, оценка 3
[Профиль]  [ЛС] 

Пост 18-Июл-2012 22:23 (спустя 28 дней)

Топик был перенесен из форума Новинки (HD|DVD|BD|TV|SAT|PDTV| - Rips) в форум Российские фильмы

erchine
 
Показать сообщения:    
Ответить на тему

Текущее время: Сегодня 20:24

Часовой пояс: GMT + 4



Вы не можете начинать темы
Вы не можете отвечать на сообщения
Вы не можете редактировать свои сообщения
Вы не можете удалять свои сообщения
Вы не можете голосовать в опросах
Вы не можете прикреплять файлы к сообщениям
Вы не можете скачивать файлы

▼ Вниз