ML
     
  Уважаемый Гость!
Вы можете поддержать проект и зарегистрироваться у наших партнеров - онлайн-стратегия MyLands. При регистрации в игре Вы получите код, который сможете активировать после регистрации на pirat.ca и получить 1000 дублонов.

Ваш код:
1a5b0a965618b2c406d4279ec9924ee6282c60cf
 
     

Разрешите тебя поцеловать... снова (Юрий Морозов) [2012 г., мелодрама,, комедия, SATRip]

Ответить на тему
 
Автор
Сообщение

Пост 18-Июн-2012 18:32

[Q] 

UA4HQW

Флибустьер

Разрешите тебя поцеловать... снова
Год выпуска: 2012
Производство: Россия,студия «Экшн Арт» по заказу компании «Телефильм Продакшн»
Российская премьера:17 июня 2012 (телеканал "TV1000 Русское кино")
Жанр: мелодрама,, комедия
Продолжительность: 01:52:26
Режиссер: Юрий Морозов
В ролях
Игорь Лифанов, Мария Куликова, Борис Щербаков, Алёна Корнева, Анастасия Красильникова, Ксения Баскакова
Описание
Прошло время, и в семье майора Григория Власова и прапорщика Натальи Киселевой наметился разлад. В воинскую часть, где служат супруги, приезжает новенькая медсестра – эффектная блондинка Марина Королькова. Ей нравится Власов, и она пытается его соблазнить. Григорий смущен, Наталья в бешенстве. А дочка Власова – Муха, объявляет Корольковой войну. Взрослые ссорятся, а Муха делает все возможное, чтобы помирить родителей.
Сэмпл , КиноПоиск
Источник/Качество: SATRip
Формат: AVI
Видео кодек: XviD
Аудио кодек: MP3
Видео: 608x336 (1.81:1), 25 fps, XviD MPEG-4 ~768 kbps avg, 0.15 bit/pixel
Аудио: 32 kHz, MPEG Layer 3, 2 ch, ~96.00 kbps avg
Общее
Полное имя : Razreschite.tebya.pozelovat.snova.700.2012.SATRip.avi
Формат : AVI
Формат/Информация : Audio Video Interleave
Размер файла : 701 Мбайт
Продолжительность : 1 ч. 52 м.
Общий поток : 871 Кбит/сек
Программа кодирования : VirtualDubMod 1.5.4.1 (build 2178/release)
Библиотека кодирования : VirtualDubMod build 2178/release
Видео
Идентификатор : 0
Формат : MPEG-4 Visual
Профиль формата : Advanced [email protected]
Параметр BVOP формата : 1
Параметр QPel формата : Нет
Параметр GMC формата : Без точки перехода
Параметр матрицы формата : Выборочная
Идентификатор кодека : XVID
Идентификатор кодека/Подсказка : XviD
Продолжительность : 1 ч. 52 м.
Битрейт : 768 Кбит/сек
Ширина : 608 пикс.
Высота : 336 пикс.
Соотношение сторон : 16:9
Частота кадров : 25,000 кадр/сек
Цветовое пространство : YUV
Подвыборка цветности : 4:2:0
Битовая глубина : 8 бит
Тип развёртки : Прогрессивная
Метод сжатия : С потерями
Бит/(Пиксели*Кадры) : 0.150
Размер потока : 618 Мбайт (88%)
Библиотека кодирования : XviD 64
Аудио
Идентификатор : 1
Формат : MPEG Audio
Версия формата : Version 1
Профиль формата : Layer 3
Режим : Joint stereo
Расширение режима : MS Stereo
Идентификатор кодека : 55
Идентификатор кодека/Подсказка : MP3
Продолжительность : 1 ч. 52 м.
Вид битрейта : Постоянный
Битрейт : 96,0 Кбит/сек
Каналы : 2 канала
Частота : 32,0 КГц
Метод сжатия : С потерями
Размер потока : 77,2 Мбайт (11%)
Выравнивание : Соединение по промежуткам
Продолжительность промежутка : 80 мс. (2,00 видеокадра)
Время предзагрузки промежутка : 504 ms
Библиотека кодирования : LAME3.97
Настройки программы : -m j -V 4 -q 2 -lowpass 15.1 -b 96
Download / Скачать

Хотите скачать бесплатно? Зарегистрируйтесь на сайте (ссылка на регистрацию). Pirat.ca - самый быстрый торрент трекер в рунете!

Как скачивать  ·   Что такое торрент  ·   Рейтинг и ограничения

nadabibak

Гроза морей

Пост 18-Июн-2012 19:01 (спустя 29 минут)

[Q] 

Су-сю, му-сю на один раз для чувствительных дам.
[Профиль]  [ЛС] 

bruder

Флибустьер

Пост 18-Июн-2012 19:35 (спустя 33 минуты)

[Q] 

(спустя 29 минут)
nadabibak, а ты что, успел посмотреть за это время весь фильм?
Продолжительность: 01:52:26

_________________
[Профиль]  [ЛС] 

xxxLOGICxxx

Корсар

Пост 19-Июн-2012 00:43 (спустя 5 часов)

[Q] 

[Профиль]  [ЛС] 

black phantom

Штурман

Пост 20-Июн-2012 20:58 (спустя 1 день 20 часов)

[Q] 

Я хоть и не дама, но мне понравилась, хорошее, доброе кино, Рекомендую!!!
[Профиль]  [ЛС] 

serik126

Лоцман

Пост 20-Июн-2012 22:24 (спустя 1 час 25 минут)

[Q] 

Согласен фильм прикольный!!!
[Профиль]  [ЛС] 

Ферзь

Корсар

Пост 21-Июн-2012 13:02 (спустя 14 часов)

[Q] 


_________________
[Профиль]  [ЛС] 

zloiaspirant

Корсар

Пост 14-Июл-2012 14:39 (спустя 23 дня)

[Q] 

Глянем, что за фильм, но раздающему респект!
[Профиль]  [ЛС] 

Пост 18-Июл-2012 22:21 (спустя 4 дня)

Топик был перенесен из форума Новинки (HD|DVD|BD|TV|SAT|PDTV| - Rips) в форум Российские фильмы

erchine
 

Voland57

Корсар

Пост 12-Авг-2012 14:45 (спустя 29 дней)

[Q] 

[Профиль]  [ЛС] 

Phantom666

Штурман

Пост 19-Окт-2012 16:41 (спустя 2 месяца 7 дней)

[Q] 

Вот у меют же наши снимать, побольше таких фильмов.
[Профиль]  [ЛС] 
Показать сообщения:    
Ответить на тему

Текущее время: Сегодня 23:49

Часовой пояс: GMT + 4



Вы не можете начинать темы
Вы не можете отвечать на сообщения
Вы не можете редактировать свои сообщения
Вы не можете удалять свои сообщения
Вы не можете голосовать в опросах
Вы не можете прикреплять файлы к сообщениям
Вы не можете скачивать файлы

▼ Вниз