ML
     
  Уважаемый Гость!
Вы можете поддержать проект и зарегистрироваться у наших партнеров - онлайн-стратегия MyLands. При регистрации в игре Вы получите код, который сможете активировать после регистрации на pirat.ca и получить 1000 дублонов.

Ваш код:
dbd0d701284cde74a1f34d06ce20b7bc75a73e75
 
     

999 / Потерянные души (Марина Кунарова) [2010 г., Драма, SATRip]

Ответить на тему
 
Автор
Сообщение

Пост 19-Июн-2012 11:08

[Q] 

sandman1973

Гроза морей

999 / Потерянные души
Год выпуска: 2010
Производство: Казахстан
Жанр: Драма
Продолжительность: 01:31:00
Режиссер: Марина Кунарова
В ролях
Камила Ермекова, Валерий Задарновский, Максим Акбаров
Описание
В фильме 9 основных персонажей, 9 частей, 9 цитат о смысле жизни. Рэпперу Метису удалось побороть наркозависимость, но его любимая девушка заплатила за это своей жизнью. Встретив наркоманку Линду, он решает спасти девушку...
Источник/Качество: SATRip
Формат: AVI
Видео кодек: XviD
Аудио кодек: MP3
Видео: XviD, 1900 Кбит/с, 720x416, 25 fps
Аудио: MP3, 2 ch, 256 Кбит/с 48 kHz
Полное имя : 999.2010.SATRip.avi
Формат : AVI
Формат/Информация : Audio Video Interleave
Размер файла : 1,37 Гбайт
Продолжительность : 1 ч. 30 м.
Общий поток : 2164 Кбит/сек
Программа кодирования : VirtualDubMod 1.5.4.1 (build 2178/release)
Библиотека кодирования : VirtualDubMod build 2178/release
Видео
Идентификатор : 0
Формат : MPEG-4 Visual
Профиль формата : Advanced [email protected]
Параметр BVOP формата : 1
Параметр QPel формата : Нет
Параметр GMC формата : Без точки перехода
Параметр матрицы формата : Выборочная
Идентификатор кодека : XVID
Идентификатор кодека/Подсказка : XviD
Продолжительность : 1 ч. 30 м.
Битрейт : 1901 Кбит/сек
Ширина : 720 пикселей
Высота : 416 пикселей
Соотношение сторон : 1,731
Частота кадров : 25,000 кадров/сек
Цветовое пространство : YUV
Субдискретизация насыщенности : 4:2:0
Битовая глубина : 8 бит
Тип развёртки : Прогрессивная
Метод сжатия : С потерями
Бит/(Пиксели*Кадры) : 0.254
Размер потока : 1,20 Гбайт (88%)
Библиотека кодирования : XviD 1.2.1 (UTC 2008-12-04)
Аудио
Идентификатор : 1
Формат : MPEG Audio
Версия формата : Version 1
Профиль формата : Layer 3
Режим : Joint stereo
Расширение режима : MS Stereo
Идентификатор кодека : 55
Идентификатор кодека/Подсказка : MP3
Продолжительность : 1 ч. 30 м.
Вид битрейта : Постоянный
Битрейт : 256 Кбит/сек
Каналы : 2 канала
Частота : 48,0 КГц
Метод сжатия : С потерями
Размер потока : 166 Мбайт (12%)
Выравнивание : Соединение по промежуткам
Продолжительность промежутка : 80 мс. (2,00 видеокадра)
Время предзагрузки промежутка : 504 мс.
Библиотека кодирования : LAME3.97
Настройки программы : -m j -V 4 -q 2 -lowpass 19.7
Download / Скачать

Хотите скачать бесплатно? Зарегистрируйтесь на сайте (ссылка на регистрацию). Pirat.ca - самый быстрый торрент трекер в рунете!

Как скачивать  ·   Что такое торрент  ·   Рейтинг и ограничения



Последний раз редактировалось: sandman1973 (2012-06-19 12:31), всего редактировалось 4 раз(а)

nadabibak

Гроза морей

Пост 19-Июн-2012 17:30 (спустя 6 часов)

[Q] 

Фильм, чушь. Бездарная игра актеров, ужасные монологи, дешевый сценарий.
[Профиль]  [ЛС] 

sandman1973 ®

Гроза морей

2129

Пост 19-Июн-2012 18:19 (спустя 49 минут)

[Q] 

ca Да Бог с Вами!
Фильм, чушь. Бездарная игра актеров, ужасные монологи, дешевый сценарий.
Это про фильм "Запретная зона"....
А так.... На вкус и цвет...
Если нравится, можете нажимать кнопочку

_________________

[Профиль]  [ЛС] 
Показать сообщения:    
Ответить на тему

Текущее время: Сегодня 18:33

Часовой пояс: GMT + 4



Вы не можете начинать темы
Вы не можете отвечать на сообщения
Вы не можете редактировать свои сообщения
Вы не можете удалять свои сообщения
Вы не можете голосовать в опросах
Вы не можете прикреплять файлы к сообщениям
Вы не можете скачивать файлы

▼ Вниз