ML
     
  Уважаемый Гость!
Вы можете поддержать проект и зарегистрироваться у наших партнеров - онлайн-стратегия MyLands. При регистрации в игре Вы получите код, который сможете активировать после регистрации на pirat.ca и получить 1000 дублонов.

Ваш код:
93dbf9fbdfa06c41d3b5a2c3921149ba36168c41
 
     

Реальная сказка (Андрей Мармонтов) [2011 г., фэнтези, драма, комедия, семейный, DVDRip-AVC] [internal release]

Ответить на тему
 
Автор
Сообщение

Пост 08-Дек-2011 07:38

[Q] 

zyyx

--Реальная сказка
«Надо просто верить»
-- Год выпуска: 2011
Мировая премьера: 3 ноября 2011
Российская премьера: 3 ноября 2011, «Централ Партнершип»
Дата выхода DVD: 8 декабря 2011, «Новый Диск»
Дата выхода Blu-Ray: 22 декабря 2011, «Новый Диск»
Жанр: фэнтези, драма, комедия, семейный
Продолжительность: 01:41:58
Перевод: Оригинал [Лицензия]
Режиссер: Андрей Мармонтов
В ролях: Сергей Безруков, Леонид Ярмольник, Максим Шибаев, Анастасия Добрынина, Ирина Безрукова, Георгий Штиль, Людмила Полякова, Анна Герман, Сергей Погосян, Антон Пампушный
Описание: Жили-были сестрица Олесенька и братец Саша… Нет, так не пойдет: кажется, прошла пора старых-добрых сказок. Даже сказочные персонажи, понимая это, переселились в наш мир: Василиса Премудрая стала учительницей, Леший — бомжом, Иван-дурак — ВДВшником, Кащей — олигархом. Злые дела творить он, конечно, не бросил. И главным его злодеянием стало то, что он лишил нас веры в чудо.
Люди стали эгоистичными, расчетливыми и прагматичными, что Кащею — как бальзам на душу. Только одно не дает ему спокойно спать: благодаря сказкам, каждый ребенок знает, где искать его смерть. И какой же он после этого бессмертный? Кащей идет на крайние меры и безжалостно уничтожает все страницы сказок, где описана его страшная тайна.
Маленькая девочка Олеся находит нетронутую старинную книгу сказок и, прочитав ее, вскоре… исчезает. Старший брат девочки, школьник Саша, бросается на поиски, рассчитывая на поддержку новых знакомых — Ивана-дурака и его жены Василисы, — но они, вопреки ожиданиям, не спешат помогать ему в его борьбе с Кащеем. Саша же готов пойти на все, чтобы вернуть сестренку и подарить миру веру в чудо.- -Источник/Качество: DVDRip-AVC | Сэмпл
Формат: MKV
Видео кодек: H.26x
Аудио кодек: AC3
Видео: [email protected]:432, 25.00fps, 2 425 Kbps
Аудио: 48000Hz, 6ch, 448 Kbps
General
Unique ID : 209332241969426485446173606456564229634 (0x9D7BEC5E4568CEFE98E69B89BD91A602)
Complete name : D:\JRG\Realnaja.skazka.2011.DVDRip-AVC.2.05.H264.zyyx.mkv
Format : Matroska
Format version : Version 2
File size : 2.05 GiB
Duration : 1h 41mn
Overall bit rate : 2 873 Kbps
Movie name : Internal Release Exclusive For http://pirat.ca by zyyx
Encoded date : UTC 2011-12-09 09:46:02
Writing application : mkvmerge v4.6.0 ('Still Crazy After All These Years') сборка от Mar 13 2011 18:33:29
Writing library : libebml v1.2.0 + libmatroska v1.1.0
Video
ID : 1
Format : AVC
Format/Info : Advanced Video Codec
Format profile : [email protected]
Format settings, CABAC : Yes
Format settings, ReFrames : 16 frames
Muxing mode : Header stripping
Codec ID : V_MPEG4/ISO/AVC
Duration : 1h 41mn
Bit rate : 2 425 Kbps
Width : 720 pixels
Height : 432 pixels
Display aspect ratio : 2.35:1
Original display aspect ratio : 2.35:1
Frame rate : 25.000 fps
Color space : YUV
Chroma subsampling : 4:2:0
Bit depth : 8 bits
Scan type : Progressive
Bits/(Pixel*Frame) : 0.312
Stream size : 1.69 GiB (82%)
Writing library : x264 core 114 r1924 08d04a4
Encoding settings : cabac=1 / ref=16 / deblock=1:-2:-1 / analyse=0x3:0x133 / me=umh / subme=9 / psy=1 / psy_rd=1.00:0.10 / mixed_ref=1 / me_range=32 / chroma_me=1 / trellis=2 / 8x8dct=1 / cqm=0 / deadzone=21,11 / fast_pskip=0 / chroma_qp_offset=-3 / threads=6 / sliced_threads=0 / nr=0 / decimate=1 / interlaced=0 / constrained_intra=0 / bframes=8 / b_pyramid=2 / b_adapt=2 / b_bias=0 / direct=3 / weightb=1 / open_gop=0 / weightp=2 / keyint=250 / keyint_min=25 / scenecut=40 / intra_refresh=0 / rc_lookahead=50 / rc=2pass / mbtree=1 / bitrate=2425 / ratetol=1.0 / qcomp=0.60 / qpmin=0 / qpmax=69 / qpstep=4 / cplxblur=20.0 / qblur=0.5 / ip_ratio=1.40 / aq=1:1.00
Audio
ID : 2
Format : AC-3
Format/Info : Audio Coding 3
Mode extension : CM (complete main)
Muxing mode : Header stripping
Codec ID : A_AC3
Duration : 1h 41mn
Bit rate mode : Constant
Bit rate : 448 Kbps
Channel(s) : 6 channels
Channel positions : Front: L C R, Side: L R, LFE
Sampling rate : 48.0 KHz
Bit depth : 16 bits
Compression mode : Lossy
Stream size : 327 MiB (16%)








Download / Скачать

Хотите скачать бесплатно? Зарегистрируйтесь на сайте (ссылка на регистрацию). Pirat.ca - самый быстрый торрент трекер в рунете!

Как скачивать  ·   Что такое торрент  ·   Рейтинг и ограничения

Пост 09-Дек-2011 17:39 (спустя 1 день 10 часов)

Топик был перенесен из форума Наше Кино в форум Новинки (HD|DVD|BD|TV|SAT|PDTV| - Rips)

Skinwalker
 

anna-mik

Лоцман

Пост 18-Дек-2011 14:54 (спустя 10 дней)

[Q] 

Качество хорошее, но сам фильм мрачный и бестолковый. Сестра Олеся- глупый свиненыш, Василиса Премудрая-старая какая-то, богатыри- глупые качки. Фильм не понравился.
[Профиль]  [ЛС] 

lucky14

Корсар

Пост 14-Янв-2012 13:42 (спустя 26 дней)

[Q] 

бредофильм
[Профиль]  [ЛС] 

smartboy

Корсар

Пост 20-Янв-2012 21:07 (спустя 6 дней)

[Q] 

спасибо
[Профиль]  [ЛС] 
Показать сообщения:    
Ответить на тему

Текущее время: Сегодня 20:24

Часовой пояс: GMT + 4



Вы не можете начинать темы
Вы не можете отвечать на сообщения
Вы не можете редактировать свои сообщения
Вы не можете удалять свои сообщения
Вы не можете голосовать в опросах
Вы не можете прикреплять файлы к сообщениям
Вы не можете скачивать файлы

▼ Вниз