ML
     
  Уважаемый Гость!
Вы можете поддержать проект и зарегистрироваться у наших партнеров - онлайн-стратегия MyLands. При регистрации в игре Вы получите код, который сможете активировать после регистрации на pirat.ca и получить 1000 дублонов.

Ваш код:
8b29d0f8cd61fe457e59e7df0aa1fab41a2b88b9
 
     

Детям до 16... (Андрей Кавун) [2010 г., Мелодрама, DVDRip]

Ответить на тему
 
Автор
Сообщение

Пост 08-Дек-2011 09:12

[Q] 

and48

Корсар

Детям до 16...
Год выпуска: 2010
Жанр: Мелодрама
Продолжительность: 01:28:56
Режиссер: Андрей Кавун
В ролях: Лянка Грыу, Анна Старшенбаум, Павел Прилучный, Дмитрий Кубасов, Родион Долгирев, Алексей Горбунов, Ирина Мерцалова, Алексей Шевченков
Описание: Кир, Лея, Даша, Макс — еще студенты. У них все — впервые. Первые слова любви, первый секс, первые совместные мечты, первые ошибки, первые разочарования и первые открытия.
Источник/Качество: DVDRip
Формат: AVI
Видео кодек: XviD
Аудио кодек: AC3
Видео: 720x384 (1.88:1), 25 fps, XviD build 50 ~2022 kbps avg, 0.29 bit/pixel
Аудио: 48 kHz, AC3 Dolby Digital, 3/2 (L,C,R,l,r) + LFE ch, ~320 kbps
Общее
Полное имя : Detjam.do.16.2010.XviD.DVDRip (pirat.ca).avi
Формат : AVI
Формат/Информация : Audio Video Interleave
Размер файла : 1,46 Гбайт
Продолжительность : 1 ч. 28 м.
Общий поток : 2353 Кбит/сек
Программа кодирования : VirtualDubMod 1.5.10.3 | www.virtualdub-fr.org || (build 2550/release)
Библиотека кодирования : VirtualDubMod build 2550/release
Видео
Идентификатор : 0
Формат : MPEG-4 Visual
Профиль формата : Advanced [email protected]
Параметр BVOP формата : 1
Параметр QPel формата : Нет
Параметр GMC формата : Без точки перехода
Параметр матрицы формата : Выборочная
Идентификатор кодека : XVID
Идентификатор кодека/Подсказка : XviD
Продолжительность : 1 ч. 28 м.
Битрейт : 2023 Кбит/сек
Ширина : 720 пикселей
Высота : 384 пикселя
Соотношение сторон : 1,875
Частота кадров : 25,000 кадров/сек
Цветовое пространство : YUV
Субдискретизация насыщенности : 4:2:0
Битовая глубина : 8 бит
Тип развёртки : Прогрессивная
Метод сжатия : С потерями
Бит/(Пиксели*Кадры) : 0.293
Размер потока : 1,26 Гбайт (86%)
Библиотека кодирования : XviD 1.2.1 (UTC 2008-12-04)
Аудио
Идентификатор : 1
Формат : AC-3
Формат/Информация : Audio Coding 3
Расширение режима : CM (complete main)
Идентификатор кодека : 2000
Продолжительность : 1 ч. 28 м.
Вид битрейта : Постоянный
Битрейт : 320 Кбит/сек
Каналы : 6 каналов
Расположение каналов : Front: L C R, Side: L R, LFE
Частота : 48,0 КГц
Битовая глубина : 16 бит
Метод сжатия : С потерями
Размер потока : 204 Мбайт (14%)
Выравнивание : Разделение по промежуткам
Продолжительность промежутка : 40 мс. (1,00 видеокадр)
Время предзагрузки промежутка : 500 мс.



AntiZip
Download / Скачать

Хотите скачать бесплатно? Зарегистрируйтесь на сайте (ссылка на регистрацию). Pirat.ca - самый быстрый торрент трекер в рунете!

Как скачивать  ·   Что такое торрент  ·   Рейтинг и ограничения

Пост 08-Дек-2011 09:46 (спустя 33 минуты)

Топик был перенесен из форума Наше Кино в форум Российские фильмы

Skinwalker
 

ficus42

Корсар

Пост 13-Янв-2012 18:03 (спустя 1 месяц 5 дней)

[Q] 

Шикарный вид!!!
[Профиль]  [ЛС] 

KOS1612

Корсар

Пост 23-Янв-2012 09:41 (спустя 9 дней)

[Q] 

Отменный фильм ay
[Профиль]  [ЛС] 

and48 ®

Корсар

169

Пост 24-Янв-2012 13:33 (спустя 1 день 3 часа)

[Q] 

Фильм со смыслом, поучительный, особенно для молодежи.
[Профиль]  [ЛС] 

Nightwalker

Гроза морей

Пост 07-Окт-2012 21:19 (спустя 8 месяцев 14 дней)

[Q] 

Большое спасибо!

_________________
Хотя и сладостен азарт, по сразу двум идти дорогам, нельзя одной колодой карт, играть и с Дьяволом и Богом.
[Профиль]  [ЛС] 
Показать сообщения:    
Ответить на тему

Текущее время: Сегодня 21:19

Часовой пояс: GMT + 4



Вы не можете начинать темы
Вы не можете отвечать на сообщения
Вы не можете редактировать свои сообщения
Вы не можете удалять свои сообщения
Вы не можете голосовать в опросах
Вы не можете прикреплять файлы к сообщениям
Вы не можете скачивать файлы

▼ Вниз