ML
     
  Уважаемый Гость!
Вы можете поддержать проект и зарегистрироваться у наших партнеров - онлайн-стратегия MyLands. При регистрации в игре Вы получите код, который сможете активировать после регистрации на pirat.ca и получить 1000 дублонов.

Ваш код:
8b29d0f8cd61fe457e59e7df0aa1fab41a2b88b9
 
     

Связь времен (Алексей Колмогоров) [2010 г., драма, военный, DVDRip][Лицензия]

Ответить на тему
 
Автор
Сообщение

Пост 27-Июн-2012 00:49

[Q] 

sorvigolova

Корсар

Связь времен -Год выпуска: 2010
Страна: Россия
Жанр: драма, военный
Продолжительность: 01:44:14
Перевод: Не требуется [Лицензия]-Режиссер: Алексей Колмогоров
Продюссер: Кирилл Бурдихин, Елена Ткаченко
Сценарий: Алексей Колмогоров-Премьера в мире: 18 ноября 2010
-В ролях: Алексей Серебряков, Светлана Иванова, Маркус Кунце, Екатерина Вилкова, Тамара Спиричева, Жан-Марк Биркхольц, Марсель Хайцманн, Кирилл Бурдихин, Галина Польских, Штеффен Грот-Описание: Это невероятная история любви, преодолевшей войну и пропасть времени длиной в шестьдесят семь лет. Действие происходит в двух временных линиях: в наше время и в 1943 году, в России и в Германии. Два молодых лейтенанта — немец и русский — разделенные войной, идеологией, солдатским долгом, вынуждены волею обстоятельств преодолеть взаимную ненависть и заключить перемирие. Посреди войны они оказываются на островке хрупкого мира, где влюбляются в одну девушку.
Им хотелось бы продлить этот светлый сон. Но война продолжается, и каждый должен вернуться к своим. Они снова враги. Единственное, в чем оба лейтенанта сходятся — они должны спасти девушку. И они ее спасают ценой собственных жизней. И через шестьдесят семь лет после гибели они спасают ее снова, мистическим образом передав информацию о грозящей ей беде своим внукам.-Сэмпл
Качество: DVDRip
Формат: AVI
Видео кодек: XviD
Аудио кодек: AC3
Видео: 720x400 (1.80:1), 25 fps, XviD build 50 ~1773 kbps avg, 0.25 bit/pixel
Аудио: 48 kHz, AC3 Dolby Digital, 2/0 (L,R) ch, ~224 kbps--
Общее
Полное имя : E:\Качается\Svyaz.vremen.2010.O.DVDRip.avi
Формат : AVI
Формат/Информация : Audio Video Interleave
Размер файла : 1,46 Гбайт
Продолжительность : 1 ч. 44 м.
Общий поток : 2007 Кбит/сек
Программа кодирования : VirtualDubMod 1.5.10.2 (build 2540/release)
Библиотека кодирования : VirtualDubMod build 2540/release
Видео
Идентификатор : 0
Формат : MPEG-4 Visual
Профиль формата : Advanced [email protected]
Параметр BVOP формата : 2
Параметр QPel формата : Нет
Параметр GMC формата : Без точки перехода
Параметр матрицы формата : Выборочная
Идентификатор кодека : XVID
Идентификатор кодека/Подсказка : XviD
Продолжительность : 1 ч. 44 м.
Битрейт : 1774 Кбит/сек
Ширина : 720 пикселей
Высота : 400 пикселей
Соотношение сторон : 16:9
Частота кадров : 25,000 кадров/сек
Цветовое пространство : YUV
Субдискретизация насыщенности : 4:2:0
Битовая глубина : 8 бит
Тип развёртки : Прогрессивная
Метод сжатия : С потерями
Бит/(Пиксели*Кадры) : 0.246
Размер потока : 1,29 Гбайт (88%)
Библиотека кодирования : XviD 1.2.1 (UTC 2008-12-04)
Аудио
Идентификатор : 1
Формат : AC-3
Формат/Информация : Audio Coding 3
Расширение режима : CM (complete main)
Параметр Endianness формата : Big
Идентификатор кодека : 2000
Продолжительность : 1 ч. 44 м.
Вид битрейта : Постоянный
Битрейт : 224 Кбит/сек
Каналы : 2 канала
Расположение каналов : Front: L R
Частота : 48,0 КГц
Битовая глубина : 16 бит
Метод сжатия : С потерями
Размер потока : 167 Мбайт (11%)
Выравнивание : Разделение по промежуткам
Продолжительность промежутка : 40 мс. (1,00 видеокадр)
Время предзагрузки промежутка : 500 мс.



Download / Скачать

Хотите скачать бесплатно? Зарегистрируйтесь на сайте (ссылка на регистрацию). Pirat.ca - самый быстрый торрент трекер в рунете!

Как скачивать  ·   Что такое торрент  ·   Рейтинг и ограничения



Последний раз редактировалось: sorvigolova (2012-06-27 12:11), всего редактировалось 2 раз(а)

Пост 27-Июн-2012 13:02 (спустя 12 часов)

Топик был перенесен из форума Наше Кино в форум Новинки (HD|DVD|BD|TV|SAT|PDTV| - Rips)

zyyx
 

dimonpa

Гроза морей

Пост 27-Июн-2012 16:03 (спустя 15 часов)

[Q] 

[Профиль]  [ЛС] 

Pronto

Корсар

Пост 27-Июн-2012 16:11 (спустя 7 минут)

[Q] 


_________________
[Профиль]  [ЛС] 

MakAVP

Морской Волк

18

Пост 29-Июн-2012 04:48 (спустя 1 день 12 часов)

[Q] 


_________________

[Профиль]  [ЛС] 

kommentariy2005

Лоцман

Пост 04-Июл-2012 21:31 (спустя 5 дней)

[Q] 

Фильм так себе. Бред по моему. Сало, мёд, г..но и пчелы. Высасали сюжет из пальца.
[Профиль]  [ЛС] 

Zelikc

Шкипер

Пост 10-Июл-2012 18:12 (спустя 5 дней)

[Q] 

[Профиль]  [ЛС] 

Barex

Корсар

171

Пост 11-Июл-2012 20:05 (спустя 1 день 1 час)

[Q] 

Отзывы спорные - качну позже, за релиз Спасибо!
[Профиль]  [ЛС] 

Пост 27-Июл-2012 08:12 (спустя 15 дней)

Топик был перенесен из форума Новинки (HD|DVD|BD|TV|SAT|PDTV| - Rips) в форум Российские фильмы

erchine
 

ZAMOK

Корсар

Пост 30-Май-2014 23:13 (спустя 1 год 10 месяцев)

[Q] 

Смотреть моно?

_________________
Не бойся того,с чем не сталкивался.
[Профиль]  [ЛС] 
Показать сообщения:    
Ответить на тему

Текущее время: Сегодня 21:24

Часовой пояс: GMT + 4



Вы не можете начинать темы
Вы не можете отвечать на сообщения
Вы не можете редактировать свои сообщения
Вы не можете удалять свои сообщения
Вы не можете голосовать в опросах
Вы не можете прикреплять файлы к сообщениям
Вы не можете скачивать файлы

▼ Вниз