ML
     
  Уважаемый Гость!
Вы можете поддержать проект и зарегистрироваться у наших партнеров - онлайн-стратегия MyLands. При регистрации в игре Вы получите код, который сможете активировать после регистрации на pirat.ca и получить 1000 дублонов.

Ваш код:
69f316be79867e9bf99caee9682d20bb11964507
 
     

Америкэн бой (Борис Квашнёв) [1992 г., боевик, DVDRip] [internal release]

Ответить на тему
 
Автор
Сообщение

Пост 04-Июл-2012 14:19

[Q] 

megamastor

Америкэн бой Производство: Украина
Режиссер: Борис Квашнёв
Жанр: боевик
Год выпуска: 1992 г.
Продолжительность: 01:50:31
В ролях: Александр Песков, Владимир Гостюхин, Олег Рогачёв, Анатолий Хостикоев, Анна Униговская, Галина Мороз, Валерий Свищёв, Артур Ли, Гиви (Гия) Лежава, Сергей Пономаренко, Сергей Асовский, Игорь Воробьев, Олег Игнатьев, Борис Калягин, Владимир Герасев, Александр Рокшак, Андрей Колесник, Спиридон Ксандолупо
Описание: После афганского плена Николай Найденов, бывший детдомовец, попадает в США, устраивается на работу инструктором в один из спортивных клубов, женится и получает американское гражданство. Жизнь складывается, как нельзя лучше. Через некоторое время он приезжает на родину к армейскому другу Сергею и узнаёт от его жены, что Сергей убит по заказу главарей одного из кланов местной мафии. На следующий день боевики, после зверских пыток, несколькими ударами в живот убивают и беременную жену Сергея…
КиноПоиск: http://www.kinopoisk.ru/level/1/film/94099/
Качество видео: DVDRip
Формат видео: AVI
Видео кодек: XviD
Аудио кодек: AC-3
Видео: 720x560, 25 fps, 1421 Кбит/сек
Аудио: 48 kHz, AC-3, 6 ch, 448 Кбит/сек
Гран-при за лучшую мужскую роль (А.Песков), приз зрительских симпатий (В.Гостюхин) на КФ «Стожары-95» (Киев).
Формат : AVI
Формат/Информация : Audio Video Interleave
Размер файла : 1,45 Гбайт
Продолжительность : 1 ч. 50 м.
Общий поток : 1878 Кбит/сек
Программа кодирования : VirtualDubMod 1.5.10.3 | www.virtualdub-fr.org || (build 2550/release)
Библиотека кодирования : VirtualDubMod build 2550/release
Видео
Идентификатор : 0
Формат : MPEG-4 Visual
Профиль формата : Advanced [email protected]
Параметр BVOP формата : 2
Параметр QPel формата : Нет
Параметр GMC формата : Без точки перехода
Параметр матрицы формата : Default (H.263)
Режим смешивания : Сжатый битовый поток
Идентификатор кодека : XVID
Идентификатор кодека/Подсказка : XviD
Продолжительность : 1 ч. 50 м.
Битрейт : 1421 Кбит/сек
Ширина : 720 пикселей
Высота : 560 пикселей
Соотношение сторон : 1,286
Частота кадров : 25,000 кадров/сек
Цветовое пространство : YUV
Субдискретизация насыщенности : 4:2:0
Битовая глубина : 8 бит
Тип развёртки : Прогрессивная
Метод сжатия : С потерями
Бит/(Пиксели*Кадры) : 0.141
Размер потока : 1,10 Гбайт (76%)
Библиотека кодирования : XviD 1.2.1 (UTC 2008-12-04)
Аудио
Идентификатор : 1
Формат : AC-3
Формат/Информация : Audio Coding 3
Расширение режима : CM (complete main)
Параметр Endianness формата : Big
Идентификатор кодека : 2000
Продолжительность : 1 ч. 50 м.
Вид битрейта : Постоянный
Битрейт : 448 Кбит/сек
Каналы : 6 каналов
Расположение каналов : Front: L C R, Side: L R, LFE
Частота : 48,0 КГц
Битовая глубина : 16 бит
Метод сжатия : С потерями
Размер потока : 354 Мбайт (24%)
Выравнивание : Разделение по промежуткам
Продолжительность промежутка : 40 мс. (1,00 видеокадр)
Время предзагрузки промежутка : 500 мс.
Download / Скачать

Хотите скачать бесплатно? Зарегистрируйтесь на сайте (ссылка на регистрацию). Pirat.ca - самый быстрый торрент трекер в рунете!

Как скачивать  ·   Что такое торрент  ·   Рейтинг и ограничения



Последний раз редактировалось: megamastor (2012-07-10 14:07), всего редактировалось 9 раз(а)

Пост 04-Июл-2012 15:27 (спустя 1 час 7 минут)

Топик был перенесен из форума Наше Кино в форум Российские фильмы

erchine
 

nadabibak

Гроза морей

Пост 10-Июл-2012 14:32 (спустя 6 дней)

[Q] 

В свое время фильм считался крутым.
[Профиль]  [ЛС] 

megamastor ®

2827

Пост 10-Июл-2012 15:03 (спустя 31 минута)

[Q] 

nadabibak, Особенно мне запомнилась финальная дуэль на лопатах ay
[Профиль]  [ЛС] 

Addiss

Лоцман

Пост 10-Июл-2012 19:42 (спустя 4 часа)

[Q] 

Не хотите раздавать, ненадо!
[Профиль]  [ЛС] 

megamastor ®

2827

Пост 10-Июл-2012 20:02 (спустя 19 минут)

[Q] 

Addiss, Просто проблемы были со связью у прова... щас все в норме
[Профиль]  [ЛС] 

gerasim

Шкипер

Пост 10-Июл-2012 21:16 (спустя 1 час 14 минут)

[Q] 

качаю
[Профиль]  [ЛС] 

Wolf111

57098

Пост 20-Июл-2012 12:45 (спустя 9 дней)

[Q] 

Помогу с раздачей
[Профиль]  [ЛС] 

Scorpion7474

Флибустьер

Пост 19-Май-2014 14:07 (спустя 1 год 9 месяцев)

[Q] 

Спасибо!!!
[Профиль]  [ЛС] 
Показать сообщения:    
Ответить на тему

Текущее время: Сегодня 14:30

Часовой пояс: GMT + 4



Вы не можете начинать темы
Вы не можете отвечать на сообщения
Вы не можете редактировать свои сообщения
Вы не можете удалять свои сообщения
Вы не можете голосовать в опросах
Вы не можете прикреплять файлы к сообщениям
Вы не можете скачивать файлы

▼ Вниз