ML
     
  Уважаемый Гость!
Вы можете поддержать проект и зарегистрироваться у наших партнеров - онлайн-стратегия MyLands. При регистрации в игре Вы получите код, который сможете активировать после регистрации на pirat.ca и получить 1000 дублонов.

Ваш код:
bc31d8aef74c92e19ad67e34a8fa63c3b9b812fb
 
     

На море! (Ярослав Чеважевский) [2009 г., Комедия, DVDRip]

Ответить на тему
 
Автор
Сообщение

Пост 08-Дек-2011 22:55

[Q] 

Kotangens

Шкипер

На море!
Год выпуска: 2009
Жанр: Комедия
Продолжительность: 01:38:37
Режиссер: Ярослав Чеважевский
В ролях: Алёна Бабенко, Павел Деревянко, Юрий Колокольников, Инга Оболдина, Ульяна Ворожейкина, Сюзанна Шпак, Никита Бабенко
Описание: Три супружеские пары с детьми решают провести новогодние каникулы большой и шумной компанией на Канарских островах. Пока в России холодная зима, они будут наслаждаться солнцем и морем. Казалось бы, нашему туристу ничто не может помешать. Однако обстоятельства не позволят им не то что искупаться, а даже одним глазком увидеть море.
Источник/Качество: DVDRip
Формат: AVI
Видео кодек: XviD
Аудио кодек: AC3
Видео: 1525 kb/s, 704x368 0.235 b/px 25,000 fps
Аудио: АС3, 448 kb/s (6 ch) 48,0 КГц
Формат : AVI
Формат/Информация : Audio Video Interleave
Размер файла : 1,36 Гбайт
Продолжительность : 1 ч. 38 м.
Общий поток : 1980 Кбит/сек
Программа кодирования : VirtualDubMod 1.5.10.2 (build 2540/release)
Библиотека кодирования : VirtualDubMod build 2540/release
Видео
Идентификатор : 0
Формат : MPEG-4 Visual
Профиль формата : Advanced [email protected]
Параметр BVOP формата : 2
Параметр QPel формата : Нет
Параметр GMC формата : Без точки перехода
Параметр матрицы формата : Default (MPEG)
Режим смешивания : Сжатый битовый поток
Идентификатор кодека : XVID
Идентификатор кодека/Подсказка : XviD
Продолжительность : 1 ч. 38 м.
Битрейт : 1522 Кбит/сек
Ширина : 704 пикселя
Высота : 368 пикселей
Соотношение сторон : 1,913
Частота кадров : 25,000 кадров/сек
Цветовое пространство : YUV
Субдискретизация насыщенности : 4:2:0
Битовая глубина : 8 бит
Тип развёртки : Прогрессивная
Метод сжатия : С потерями
Бит/(Пиксели*Кадры) : 0.235
Размер потока : 1,05 Гбайт (77%)
Библиотека кодирования : XviD 1.2.0.dev47 (UTC 2006-11-01)
Аудио
Идентификатор : 1
Формат : AC-3
Формат/Информация : Audio Coding 3
Расширение режима : CM (complete main)
Идентификатор кодека : 2000
Продолжительность : 1 ч. 38 м.
Вид битрейта : Постоянный
Битрейт : 448 Кбит/сек
Каналы : 6 каналов
Расположение каналов : Front: L C R, Side: L R, LFE
Частота : 48,0 КГц
Битовая глубина : 16 бит
Метод сжатия : С потерями
Задержка видео : 197 мс.
Размер потока : 316 Мбайт (23%)
Выравнивание : Разделение по промежуткам
Продолжительность промежутка : 40 мс. (1,00 видеокадр)
Время предзагрузки промежутка : 500 мс.

Download / Скачать

Хотите скачать бесплатно? Зарегистрируйтесь на сайте (ссылка на регистрацию). Pirat.ca - самый быстрый торрент трекер в рунете!

Как скачивать  ·   Что такое торрент  ·   Рейтинг и ограничения



Последний раз редактировалось: Kotangens (2011-12-11 15:26), всего редактировалось 3 раз(а)

Пост 11-Дек-2011 16:14 (спустя 2 дня 17 часов)

Топик был перенесен из форума Наше Кино в форум Российские фильмы

Skinwalker
 

Александр 198001

Шкипер

Пост 25-Янв-2012 22:51 (спустя 1 месяц 16 дней)

[Q] 

Спасибо.
[Профиль]  [ЛС] 

lis777

Корсар

Пост 05-Фев-2012 00:25 (спустя 10 дней)

[Q] 

[Профиль]  [ЛС] 

KIRST

Корсар

Пост 18-Фев-2012 08:48 (спустя 13 дней)

[Q] 

[Профиль]  [ЛС] 

Chiochanka

Морской Волк

Пост 16-Сен-2012 17:19 (спустя 6 месяцев 27 дней)

[Q] 

[Профиль]  [ЛС] 

hohol541

Корсар

Пост 29-Дек-2012 10:51 (спустя 3 месяца 12 дней)

[Q] 

Страшен наш туризм.А так прикол.
[Профиль]  [ЛС] 

darkbrides

Штурман

Пост 04-Янв-2013 04:40 (спустя 5 дней)

[Q] 

восточных славян в западной европе, опасаются и даже боятся, во как bc
[Профиль]  [ЛС] 

Michaell43

Корсар

379

Пост 10-Янв-2013 21:51 (спустя 6 дней)

[Q] 

Спасибо за фильм!
[Профиль]  [ЛС] 

Shubnikoff

Морской Волк

Пост 18-Мар-2013 18:25 (спустя 2 месяца 7 дней)

[Q] 

спасибо
[Профиль]  [ЛС] 

Zelter

Морской Волк

Пост 18-Мар-2013 18:36 (спустя 10 минут)

[Q] 


А так я российские современные фильмы из прИнципа не смотрю, уж больно малобюджетные и тупые порой, а эта так называемая пора - бессюжетность, бывает ой как часто - ну в каждом фильме.

_________________
Когда говоришь не думай, ибо для правды думать не надо.
[Профиль]  [ЛС] 

казаев

Морской Волк

Пост 27-Мар-2013 01:22 (спустя 8 дней)

[Q] 

[Профиль]  [ЛС] 

roma77741

Штурман

Пост 15-Окт-2013 12:21 (спустя 6 месяцев 19 дней)

[Q] 

нормальный фильм
[Профиль]  [ЛС] 

Han.M

Флибустьер

Пост 12-Янв-2014 11:22 (спустя 2 месяца 27 дней)

[Q] 

Смотрел в свое время, отличный фильм, смешной и смотрится легко. Всем советую.
На форуме  [Профиль]  [ЛС] 

alexkalchenko

Корсар

40

Пост 24-Фев-2014 20:33 (спустя 1 месяц 12 дней)

[Q] 

отличный фильм
[Профиль]  [ЛС] 

papa_doc

Штурман

Пост 08-Мар-2014 23:40 (спустя 12 дней)

[Q] 

Ну и бред!!!! Дерьмовее фильма в последнее время вообще не смотрел!!!!
Грустно, а не смешно. Фильм про придурков, даже не стеб, а с претензией на юмор!!!
Но автору все равно - спасибо!!!
[Профиль]  [ЛС] 
Показать сообщения:    
Ответить на тему

Текущее время: Сегодня 11:59

Часовой пояс: GMT + 4



Вы не можете начинать темы
Вы не можете отвечать на сообщения
Вы не можете редактировать свои сообщения
Вы не можете удалять свои сообщения
Вы не можете голосовать в опросах
Вы не можете прикреплять файлы к сообщениям
Вы не можете скачивать файлы

▼ Вниз