ML
     
  Уважаемый Гость!
Вы можете поддержать проект и зарегистрироваться у наших партнеров - онлайн-стратегия MyLands. При регистрации в игре Вы получите код, который сможете активировать после регистрации на pirat.ca и получить 1000 дублонов.

Ваш код:
bc31d8aef74c92e19ad67e34a8fa63c3b9b812fb
 
     

Снайпер: Оружие возмездия (Александр Ефремов) [2009 г., Военный, DVDRip]

Ответить на тему
 
Автор
Сообщение

Пост 08-Июл-2012 16:51

[Q] 

GodFather3

Корсар

Снайпер: Оружие возмездия Производство: Россия, Беларусь
Режиссер: Александр Ефремов
Жанр: Военный
Год выпуска: 2009 г.
Продолжительность: 02:42:39
Российская премьера: 23 февраля 2010
Дата выхода DVD: 25 февраля 2010
Cубтитры: отсутствуют
В ролях:
Дмитрий Певцов
Мария Миронова
Алина Сергеева
Александр Ефремов
Павел Делонг
Владас Багдонас
Сергей Беляев
Павел Харланчук
Андрей Шилько
Михаил Есьман
Описание:
Сталинград, 1942 г. Со стороны советских войск успешно действует группа из девяти снайперов, среди которых выделяются их командир — старший лейтенат Яшин (Дмитрий Певцов) и снайпер Алеся (Алина Сергеева), прозванная немцами «Ведьмой». Против них немцы отправляют своего снайпера — капитана Карла Кляйста. Немецкий снайпер подстраивает ловушку, в которой гибнет Алеся, а Яшин получает ранение пулей, помеченной буквами «KK».
По окончании войны Яшин, уже став майором, становится комендантом небольшого немецкого города. Там, в замке, обнаруживаются секретные немецкие чертежи ракет «Фау». В поисках ракетного оружия Германии в городок приезжает инженер Михайловский. Однако в замке, который готовится к взрыву, чертежи охраняет группа снайперов под руководством Карла Кляйста, застреливших много советских военнослужащих и захвативших в плен инженера. Из убитого советского офицера извлекли пулю с тем же клеймом — «KK», как в той пуле, которую до сих пор хранит при себе Яшин.
Яшин вызывает троих солдат из своей снайперской группы и ценой их жизней получает возможность отомстить за Алесю, ликвидировав немецкий отряд.
Качество видео: DVDRip
Формат видео: AVI
Видео кодек: XviD
Аудио кодек: AC3
Видео: 688x400 (1.72:1), 25 fps, XviD build 50 ~1365 kbps avg, 0.20 bit/pixel
Аудио: 48 kHz, AC3 Dolby Digital, 3/2 (L,C,R,l,r) + LFE ch, ~384 kbps
Фестиваль «Лістапад-2009» (конкурс игрового кино) — третье место
Общее
Полное имя : E:\Видео\Snayper.Oruzie.Vozmezdiya.2009.O.Rus.DVDRip.avi
Формат : AVI
Формат/Информация : Audio Video Interleave
Профиль формата : OpenDML
Размер файла : 2,00 Гбайт
Продолжительность : 2 ч. 42 м.
Общий поток : 1756 Кбит/сек
Программа кодирования : VirtualDubMod 1.5.4.1 (build 2178/release)
Библиотека кодирования : VirtualDubMod build 2178/release
Видео
Идентификатор : 0
Формат : MPEG-4 Visual
Профиль формата : Advanced [email protected]
Параметр BVOP формата : 1
Параметр QPel формата : Нет
Параметр GMC формата : Без точки перехода
Параметр матрицы формата : Выборочная
Идентификатор кодека : XVID
Идентификатор кодека/Подсказка : XviD
Продолжительность : 2 ч. 42 м.
Битрейт : 1363 Кбит/сек
Ширина : 688 пикселей
Высота : 400 пикселей
Соотношение сторон : 1,720
Частота кадров : 25,000 кадров/сек
Цветовое пространство : YUV
Субдискретизация насыщенности : 4:2:0
Битовая глубина : 8 бит
Тип развёртки : Прогрессивная
Метод сжатия : С потерями
Бит/(Пиксели*Кадры) : 0.198
Размер потока : 1,55 Гбайт (78%)
Библиотека кодирования : XviD 1.2.1 (UTC 2008-12-04)
Аудио
Идентификатор : 1
Формат : AC-3
Формат/Информация : Audio Coding 3
Расширение режима : CM (complete main)
Параметр Endianness формата : Big
Идентификатор кодека : 2000
Продолжительность : 2 ч. 42 м.
Вид битрейта : Постоянный
Битрейт : 384 Кбит/сек
Каналы : 6 каналов
Расположение каналов : Front: L C R, Side: L R, LFE
Частота : 48,0 КГц
Битовая глубина : 16 бит
Метод сжатия : С потерями
Размер потока : 447 Мбайт (22%)
Выравнивание : Разделение по промежуткам
Продолжительность промежутка : 96 мс. (2,40 видеокадра)
Время предзагрузки промежутка : 96 мс.




Download / Скачать

Хотите скачать бесплатно? Зарегистрируйтесь на сайте (ссылка на регистрацию). Pirat.ca - самый быстрый торрент трекер в рунете!

Как скачивать  ·   Что такое торрент  ·   Рейтинг и ограничения



Последний раз редактировалось: GodFather3 (2012-07-08 17:36), всего редактировалось 5 раз(а)

GodFather3 ®

Корсар

142

Пост 08-Июл-2012 16:53 (спустя 2 минуты)

[Q] 

Не судите строго) впервые в жизни раздачу создаю)
[Профиль]  [ЛС] 

zpSaid

123

Пост 08-Июл-2012 17:32 (спустя 38 минут)

[Q] 

Фильм зачетный!

_________________
Джавдет трус! Абдула воин!
[Профиль]  [ЛС] 

GodFather3 ®

Корсар

142

Пост 08-Июл-2012 17:40 (спустя 7 минут)

[Q] 

Фильм очень хороший!)
[Профиль]  [ЛС] 

erchine

44809

Пост 08-Июл-2012 17:42 (спустя 2 минуты)

[Q] 

Спасибо за раздачу!
[Профиль]  [ЛС] 

Пост 08-Июл-2012 17:43 (спустя 32 секунды)

Топик был перенесен из форума Наше Кино в форум Российские фильмы

erchine
 

GodFather3 ®

Корсар

142

Пост 08-Июл-2012 17:43 (спустя 58 секунд)

[Q] 

Уряяяя получилось!!!!
[Профиль]  [ЛС] 

Vulkankor

Корсар

Пост 08-Июл-2012 17:45 (спустя 1 минута)

[Q] 

Смотрел - отличный фильм , без тягомотины ay
[Профиль]  [ЛС] 

nadabibak

Гроза морей

Пост 08-Июл-2012 19:02 (спустя 1 час 16 минут)

[Q] 

Сентиментальных снайперов не бывает, их просто убивают. Если бы не Певцов то вообще не на что смотреть. А так фильм добротно сделан. Раздающему респект.
[Профиль]  [ЛС] 

odyssey123

Флибустьер

Пост 08-Июл-2012 23:33 (спустя 4 часа)

[Q] 

[Профиль]  [ЛС] 

GodFather3 ®

Корсар

142

Пост 09-Июл-2012 18:34 (спустя 19 часов)

[Q] 

Что самое интересное, у меня отдано около 6 ГБ на этой раздаче, из них засчитано ну около 3 ГБ максимум, а у других сидеров в разы больше отдано)
[Профиль]  [ЛС] 

erchine

44809

Пост 09-Июл-2012 19:00 (спустя 26 минут)

[Q] 

Что самое интересное, у меня отдано около 6 ГБ на этой раздаче, из них засчитано ну около 3 ГБ максимум, а у других сидеров в разы больше отдано)
GodFather3, на эту тему можете поговорить здесь Вопросы и предложения по форуму и трек... (форум)
а в этой теме только про кино ez
[Профиль]  [ЛС] 

miner804

Морской Волк

Пост 13-Июл-2012 20:54 (спустя 4 дня)

[Q] 

Хорошее кино...
[Профиль]  [ЛС] 

ELEN

Морской Волк

Пост 31-Мар-2013 21:57 (спустя 8 месяцев 18 дней)

[Q] 

СПАСИБО
[Профиль]  [ЛС] 

Aurums

Корсар

Пост 14-Апр-2013 21:53 (спустя 13 дней)

[Q] 

Люблю новые российские фильмы про войну) норм.
[Профиль]  [ЛС] 

Zloi93

Шкипер

Пост 17-Апр-2013 07:33 (спустя 2 дня 9 часов)

[Q] 

[Профиль]  [ЛС] 

vlad732007

Корсар

Пост 31-Июл-2013 19:34 (спустя 3 месяца 14 дней)

[Q] 

Спасибо!!! заценим
[Профиль]  [ЛС] 

SCORPION.

Морской Волк

Пост 03-Авг-2013 21:11 (спустя 3 дня)

[Q] 

Раздающему респект!
[Профиль]  [ЛС] 
Показать сообщения:    
Ответить на тему

Текущее время: Сегодня 11:56

Часовой пояс: GMT + 4



Вы не можете начинать темы
Вы не можете отвечать на сообщения
Вы не можете редактировать свои сообщения
Вы не можете удалять свои сообщения
Вы не можете голосовать в опросах
Вы не можете прикреплять файлы к сообщениям
Вы не можете скачивать файлы

▼ Вниз