ML
     
  Уважаемый Гость!
Вы можете поддержать проект и зарегистрироваться у наших партнеров - онлайн-стратегия MyLands. При регистрации в игре Вы получите код, который сможете активировать после регистрации на pirat.ca и получить 1000 дублонов.

Ваш код:
bb0cb47ee786a33f751af5a500dd264c9487bfac
 
     

Настоятель 2 (Игорь Москвитин) [2011 г., Драма, криминал, DVDRip]

Ответить на тему
 
Автор
Сообщение

Пост 19-Июл-2012 09:44

[Q] 

Amethyst

-Настоятель 2-- Производство: Россия, Триикс Медиа
Режиссер: Игорь Москвитин
Жанр: Драма, криминал
Год выпуска: 2011 г.
Продолжительность: 01:29:59
Российская премьера: 5 ноября 2011
Дата выхода DVD: 19 июля 2012, «Компания WWW.RECORDS»
В ролях: Егор Пазенко, Андрей Чубченко, Анна Табанина, Дмитрий Лебедев (III), Павел Миронов, Кирилл Датешидзе, Наталья Ткаченко, Вадим Парфёнов, Геннадий Меньшиков, Фёдор Копосов, Василий Шевцов, Даниил Кокин, Алина Белякова, Дмитрий Конев-Описание: С момента последних событий прошло время. Отец Андрей все так же читает проповеди, иногда заходит в бар, чтобы пообщаться с прихожанами в неформальной обстановке. В городе после того, как был арестован и посажен Агафонов – тишь да благодать. Нет, ну, случаются какие-то происшествия, но начальник местной милиции Муров стоит на страже закона. Неожиданно в город приезжает некто Иван Лебедев. Он ищет отца Андрея...-Сэмпл | КиноПоиск
Качество видео: DVDRip
Формат видео: AVI
Видео кодек: XviD
Аудио кодек: AC3
Видео: XVID, 720x384, 25.000 fps, 1720Kbps
Аудио: AC-3, 48000Hz, 6ch, 448kbps
Cубтитры: отсутствуют
Общее
Полное имя : D:\Торенты\Nastoyatel.2.2011.O.DVDRip..avi
Формат : AVI
Формат/Информация : Audio Video Interleave
Размер файла : 1,37 Гбайт
Продолжительность : 1 ч. 29 м.
Общий поток : 2178 Кбит/сек
Программа кодирования : VirtualDubMod 1.5.10.3 (build 2550/release)
Видео
Идентификатор : 0
Формат : MPEG-4 Visual
Профиль формата : Advanced [email protected]
Параметр BVOP формата : 2
Параметр QPel формата : Нет
Параметр GMC формата : Без точки перехода
Параметр матрицы формата : Выборочная
Идентификатор кодека : XVID
Идентификатор кодека/Подсказка : XviD
Продолжительность : 1 ч. 29 м.
Битрейт : 1720 Кбит/сек
Ширина : 720 пикселей
Высота : 384 пикселя
Соотношение сторон : 1,85:1
Частота кадров : 25,000 кадров/сек
Цветовое пространство : YUV
Субдискретизация насыщенности : 4:2:0
Битовая глубина : 8 бит
Тип развёртки : Прогрессивная
Метод сжатия : С потерями
Бит/(Пиксели*Кадры) : 0.249
Размер потока : 1,08 Гбайт (79%)
Библиотека кодирования : XviD 1.2.1 (UTC 2008-12-04)
Аудио
Идентификатор : 1
Формат : AC-3
Формат/Информация : Audio Coding 3
Расширение режима : CM (complete main)
Параметр Endianness формата : Big
Идентификатор кодека : 2000
Продолжительность : 1 ч. 29 м.
Вид битрейта : Постоянный
Битрейт : 448 Кбит/сек
Каналы : 6 каналов
Расположение каналов : Front: L C R, Side: L R, LFE
Частота : 48,0 КГц
Битовая глубина : 16 бит
Метод сжатия : С потерями
Размер потока : 288 Мбайт (21%)
Выравнивание : Разделение по промежуткам
Продолжительность промежутка : 40 мс. (1,00 видеокадр)
Время предзагрузки промежутка : 500 мс.
Download / Скачать

Хотите скачать бесплатно? Зарегистрируйтесь на сайте (ссылка на регистрацию). Pirat.ca - самый быстрый торрент трекер в рунете!

Как скачивать  ·   Что такое торрент  ·   Рейтинг и ограничения

Пост 19-Июл-2012 10:33 (спустя 49 минут)

Топик был перенесен из форума Наше Кино в форум Новинки (HD|DVD|BD|TV|SAT|PDTV| - Rips)

erchine
 

got70

Легенда

752

Пост 19-Июл-2012 16:46 (спустя 7 часов)

[Q] 

Заценим

_________________
Добро непременно победит зло!Непременно...Затем поставит на колени,и зверски УБЬЁТ!
[Профиль]  [ЛС] 

gr71silver

Корсар

Пост 19-Июл-2012 19:17 (спустя 2 часа 30 минут)

[Q] 

Спасибо!
[Профиль]  [ЛС] 

krendel1973

Флибустьер

Пост 20-Июл-2012 16:32 (спустя 21 час)

[Q] 

[Профиль]  [ЛС] 

lis777

Корсар

Пост 20-Июл-2012 20:52 (спустя 4 часа)

[Q] 

[Профиль]  [ЛС] 

Andrei

Штурман

Пост 28-Июл-2012 18:02 (спустя 7 дней)

[Q] 

что за треск постоянно слышен-раздающему позор !!!-раздачу на мыло-рип в корзину

_________________
[Профиль]  [ЛС] 

pum

Корсар

Пост 28-Июл-2012 23:24 (спустя 5 часов)

[Q] 

Как кино? Отпишитесь
[Профиль]  [ЛС] 
Показать сообщения:    
Ответить на тему

Текущее время: Сегодня 02:19

Часовой пояс: GMT + 4



Вы не можете начинать темы
Вы не можете отвечать на сообщения
Вы не можете редактировать свои сообщения
Вы не можете удалять свои сообщения
Вы не можете голосовать в опросах
Вы не можете прикреплять файлы к сообщениям
Вы не можете скачивать файлы

▼ Вниз