ML
     
  Уважаемый Гость!
Вы можете поддержать проект и зарегистрироваться у наших партнеров - онлайн-стратегия MyLands. При регистрации в игре Вы получите код, который сможете активировать после регистрации на pirat.ca и получить 1000 дублонов.

Ваш код:
74c28610d77aaac24ba694c4128f3b9b46b04220
 
     

Лузер (Александр Абдулов) [2007 г., Комедия, DVDRip]

Ответить на тему
 
Автор
Сообщение

Пост 09-Дек-2011 15:31

[Q] 

leha1975

Гроза морей

Лузер
Год выпуска: 2007
Жанр: Комедия
Продолжительность: 01:44:25 2 Х 50
Режиссер: Александр Абдулов
В ролях: Александр Абдулов, Ирина Розанова, Сергей Никоненко, Сергей Степанченко, Лариса Удовиченко, Андрей Макаревич
Описание: По московским улицам накануне Нового года неприкаянно ходит Дима, уже немолодой интеллигентного вида мужчина. Всё у него не ладится: жена не хочет его знать, близкие друзья отказываются приглашать на Новый год к себе, даже наметившийся легкий роман с молодой девушкой обрывается, даже не начавшись. Окружающие, как сговорившись, прямо или косвенно не устают повторять: ты неудачник, ты лузер.

Mediainfo
G:\pirat.ca\раздачи\ЛУЗЕР\01.avi
General
Complete name : G:\pirat.ca\раздачи\ЛУЗЕР\01.avi
Format : AVI
Format/Info : Audio Video Interleave
File size : 849 MiB
Duration : 53mn 35s
Overall bit rate : 2 214 Kbps
Writing application : VirtualDubMod 1.5.10.3 | www.virtualdub-fr.org || (build 2550/release)
Writing library : VirtualDubMod build 2550/release
Video #0
ID : 0
Format : MPEG-4 Visual
Format profile : Advanced [email protected]
Format settings, BVOP : Yes
Format settings, QPel : No
Format settings, GMC : No warppoints
Format settings, Matrix : Default (MPEG)
Codec ID : XVID
Codec ID/Hint : XviD
Duration : 53mn 35s
Bit rate : 1 821 Kbps
Width : 720 pixels
Height : 416 pixels
Display aspect ratio : 16:9
Frame rate : 25.000 fps
Resolution : 8 bits
Colorimetry : 4:2:0
Scan type : Progressive
Bits/(Pixel*Frame) : 0.243
Stream size : 698 MiB (82%)
Writing library : XviD 1.2.1 (UTC 2008-12-04)
Audio #1
ID : 1
Format : AC-3
Format/Info : Audio Coding 3
Format_Settings_ModeExtension : CM (complete main)
Codec ID : 2000
Duration : 53mn 35s
Bit rate mode : Constant
Bit rate : 384 Kbps
Channel(s) : 6 channels
Channel positions : Front: L C R, Side: L R, LFE
Sampling rate : 48.0 KHz
Stream size : 147 MiB (17%)
Alignment : Split accross interleaves
Interleave, duration : 40 ms (1.00 video frame)
Interleave, preload duration : 500 ms
СэмплИсточник/Качество: DVDRipФормат: AVIАудио кодек: AC3Видео: 720x416 (1.73:1) 25 fps XviD build 50 1820 kbps avg 0.24 bit/pixeАудио: 48 kHz AC3 Dolby Digital 3/2 (L,C,R,l,r) + LFE ch 384 kbps
Download / Скачать

Хотите скачать бесплатно? Зарегистрируйтесь на сайте (ссылка на регистрацию). Pirat.ca - самый быстрый торрент трекер в рунете!

Как скачивать  ·   Что такое торрент  ·   Рейтинг и ограничения

Пост 09-Дек-2011 17:42 (спустя 2 часа 11 минут)

Топик был перенесен из форума Наше Кино в форум Российские фильмы

Skinwalker
 
Показать сообщения:    
Ответить на тему

Текущее время: Сегодня 09:59

Часовой пояс: GMT + 4



Вы не можете начинать темы
Вы не можете отвечать на сообщения
Вы не можете редактировать свои сообщения
Вы не можете удалять свои сообщения
Вы не можете голосовать в опросах
Вы не можете прикреплять файлы к сообщениям
Вы не можете скачивать файлы

▼ Вниз