ML
     
  Уважаемый Гость!
Вы можете поддержать проект и зарегистрироваться у наших партнеров - онлайн-стратегия MyLands. При регистрации в игре Вы получите код, который сможете активировать после регистрации на pirat.ca и получить 1000 дублонов.

Ваш код:
4399ab8611ee7f8a22949d2ee7634160dd2db7e0
 
     

Не укради (Алексей Феоктистов) [2011 г., Детектив, боевик, DVDRip]

Ответить на тему
 
Автор
Сообщение

Пост 23-Июл-2012 14:59

[Q] 

UA4HQW

Флибустьер

-Не укради-- Производство: Россия Cinematic Ltd
Режиссер: Алексей Феоктистов
Жанр: Детектив, боевик
Год выпуска: 2011 г.
Продолжительность: 01:29:50
Дата выхода DVD: 20 марта 2012
В ролях: Мария Берсенева, Олег Харитонов, Александр Рапопорт, Кирилл Бурдихин, Олег Васильков, Владимир Антоник, Константин Юдаев, Сергей Стёпин, Ингеборга Любомирская, Евгений Фокин, Олег Масленников-Войтов-Описание: По преданию, 8 сентября 1295 года, в лесу, недалеко от сожженного татарами Курска, была найдена икона, лежащая лицом вниз на корне дерева. А когда её подняли, чтобы рассмотреть, из того места, где лежала икона, забил родник. История происходит в наше время. Группе милиционеров поручено расследование громкого дела — дерзкого похищения той самой, бесценной иконы Курской Богоматери, одной из самых древних реликвий православной церкви. Команда профессионалов во главе с главным героем — Михаилом Николаевым идет по следам похитителей, сталкиваясь с противодействием «оборотней» в погонах. Рискуя жизнью, они обрывают нити зарубежных заговоров, противоборствуют с синдикатом по продаже антикварных ценностей и выходят победителями.-КиноПоиск, Сэмпл
Качество видео: DVDRip
Формат видео: AVI
Видео кодек: XviD
Аудио кодек: MP3
Видео: 720x416 (1.73:1), 25 fps, XviD build 47 ~1992 kbps avg, 0.27 bit/pixel
Аудио: 48 kHz, MPEG Layer 3, 2 ch, ~173.26 kbps avg
Общее
Полное имя : Ne.Ukradi.2011.Xvid.DVDRip.avi
Формат : AVI
Формат/Информация : Audio Video Interleave
Размер файла : 1,37 Гбайт
Продолжительность : 1 ч. 29 м.
Общий поток : 2179 Кбит/сек
Программа кодирования : VirtualDubMod 1.5.4.1 (build 2178/release)
Библиотека кодирования : VirtualDubMod build 2178/release
Видео
Идентификатор : 0
Формат : MPEG-4 Visual
Профиль формата : Advanced [email protected]
Параметр BVOP формата : 1
Параметр QPel формата : Нет
Параметр GMC формата : Без точки перехода
Параметр матрицы формата : Выборочная
Идентификатор кодека : XVID
Идентификатор кодека/Подсказка : XviD
Продолжительность : 1 ч. 29 м.
Битрейт : 1993 Кбит/сек
Ширина : 720 пикс.
Высота : 416 пикс.
Соотношение сторон : 16:9
Частота кадров : 25,000 кадр/сек
Цветовое пространство : YUV
Подвыборка цветности : 4:2:0
Битовая глубина : 8 бит
Тип развёртки : Прогрессивная
Метод сжатия : С потерями
Бит/(Пиксели*Кадры) : 0.266
Размер потока : 1,25 Гбайт (91%)
Библиотека кодирования : XviD 1.2.0.dev47 (UTC 2006-11-01)
Аудио
Идентификатор : 1
Формат : MPEG Audio
Версия формата : Version 1
Профиль формата : Layer 3
Режим : Joint stereo
Расширение режима : MS Stereo
Идентификатор кодека : 55
Идентификатор кодека/Подсказка : MP3
Продолжительность : 1 ч. 29 м.
Вид битрейта : Переменный
Битрейт : 173 Кбит/сек
Номинальный битрейт : 192 Кбит/сек
Каналы : 2 канала
Частота : 48,0 КГц
Метод сжатия : С потерями
Размер потока : 111 Мбайт (8%)
Выравнивание : Соединение по промежуткам
Продолжительность промежутка : 24 мс. (0,60 видеокадр)
Время предзагрузки промежутка : 571 ms
Библиотека кодирования : LAME3.97
Настройки программы : -m j -V 4 -q 2 -lowpass 18.6 --abr 192
Язык : Russian
Download / Скачать

Хотите скачать бесплатно? Зарегистрируйтесь на сайте (ссылка на регистрацию). Pirat.ca - самый быстрый торрент трекер в рунете!

Как скачивать  ·   Что такое торрент  ·   Рейтинг и ограничения



Последний раз редактировалось: UA4HQW (2012-07-23 18:19), всего редактировалось 3 раз(а)

Пост 23-Июл-2012 20:31 (спустя 5 часов)

Топик был перенесен из форума Наше Кино в форум Новинки (HD|DVD|BD|TV|SAT|PDTV| - Rips)

erchine
 

Пост 26-Авг-2012 22:59 (спустя 1 месяц 3 дня)

Топик был перенесен из форума Новинки (HD|DVD|BD|TV|SAT|PDTV| - Rips) в форум Российские фильмы

erchine
 
Показать сообщения:    
Ответить на тему

Текущее время: Сегодня 10:44

Часовой пояс: GMT + 4



Вы не можете начинать темы
Вы не можете отвечать на сообщения
Вы не можете редактировать свои сообщения
Вы не можете удалять свои сообщения
Вы не можете голосовать в опросах
Вы не можете прикреплять файлы к сообщениям
Вы не можете скачивать файлы

▼ Вниз