ML
     
  Уважаемый Гость!
Вы можете поддержать проект и зарегистрироваться у наших партнеров - онлайн-стратегия MyLands. При регистрации в игре Вы получите код, который сможете активировать после регистрации на pirat.ca и получить 1000 дублонов.

Ваш код:
ec3b26eefbcdc72e08e9fd33c6846bb2ca10f8b1
 
     

Олимпийская деревня (Александр Сухарев) [2010 г., комедия, SATRip]

Ответить на тему
 
Автор
Сообщение

Пост 31-Июл-2012 23:49

[Q] 

UA4HQW

Флибустьер

-Олимпийская деревня-- Производство: Россия АМИГОС ФИЛЬМ
Режиссер: Александр Сухарев
Жанр: комедия
Год выпуска: 2010 г.
Продолжительность: 01:20:00
Российская премьера: 10 мая 2012
В ролях: Михаил Ефремов, Валерий Гаркалин, Денис Никифоров, Виктор Бычков, Алексей Булдаков, Геннадий Хазанов, Инга Оболдина, Галина Петрова, Сергей Колешня, Настя Городенцева, Тимофей Трибунцев, Владимир Гусев.-Описание: Москва, август 1980 года. Власти СССР готовят Москву к приезду олимпийских гостей. В связи с кампанией по «очищению» Москвы, неблагонадежных граждан, инакомыслящих и диссидентов на время Олимпиады отправляют за 101-й, километр в дачные поселки и санатории. В их числе – инфантильный виолончелист Арсений Чайка, который, победив на конкурсе имени Чайковского, привлёк к себе излишнее внимание иностранной музыкальной прессы и теперь находится под пристальным вниманием соответствующих органов. С виолончелью за спиной и с единственным другом - кроликом - на руках Арсений отправляется в «ссылку». Деревня Протасово живёт своей привычной жизнью - дачники едят овощи с грядки, местные жители пьют за олимпийские рекорды. Московские "гости" органично вписались в деревенский пейзаж. Устроив хиппи-лагерь на берегу реки, они пьют портвейн и дают импровизированные рок-концерты. Арсению же спокойная жизнь не светит...-Сэмпл КиноПоиск
Качество видео: SATRip
Формат видео: AVI
Видео кодек: XviD
Аудио кодек: MP3
Видео: 704x416 (1.69:1), 25 fps, XviD build 50 ~2262 kbps avg, 0.31 bit/pixel
Аудио: 48 kHz, MPEG Layer 3, 2 ch, ~192.00 kbps avg
Общее
Полное имя : Olimpijskaja.derevnja.2010.XviD.DVDRip.avi
Формат : AVI
Формат/Информация : Audio Video Interleave
Размер файла : 1,36 Гбайт
Продолжительность : 1 ч. 19 м.
Общий поток : 2464 Кбит/сек
Программа кодирования : VirtualDubMod 1.5.10.3 | www.virtualdub-fr.org || (build 2550/release)
Библиотека кодирования : VirtualDubMod build 2550/release
Видео
Идентификатор : 0
Формат : MPEG-4 Visual
Профиль формата : Advanced [email protected]
Параметр BVOP формата : 1
Параметр QPel формата : Нет
Параметр GMC формата : Без точки перехода
Параметр матрицы формата : Default (H.263)
Идентификатор кодека : XVID
Идентификатор кодека/Подсказка : XviD
Продолжительность : 1 ч. 19 м.
Битрейт : 2262 Кбит/сек
Ширина : 704 пикс.
Высота : 416 пикс.
Соотношение сторон : 1,692
Частота кадров : 25,000 кадр/сек
Цветовое пространство : YUV
Подвыборка цветности : 4:2:0
Битовая глубина : 8 бит
Тип развёртки : Прогрессивная
Метод сжатия : С потерями
Бит/(Пиксели*Кадры) : 0.309
Размер потока : 1,25 Гбайт (92%)
Библиотека кодирования : XviD 1.2.1 (UTC 2008-12-04)
Аудио
Идентификатор : 1
Формат : MPEG Audio
Версия формата : Version 1
Профиль формата : Layer 3
Режим : Joint stereo
Расширение режима : MS Stereo
Идентификатор кодека : 55
Идентификатор кодека/Подсказка : MP3
Продолжительность : 1 ч. 19 м.
Вид битрейта : Постоянный
Битрейт : 192 Кбит/сек
Каналы : 2 канала
Частота : 48,0 КГц
Метод сжатия : С потерями
Размер потока : 109 Мбайт (8%)
Выравнивание : Соединение по промежуткам
Продолжительность промежутка : 40 мс. (1,00 видеокадр)
Время предзагрузки промежутка : 504 ms
Библиотека кодирования : LAME3.98r
Настройки программы : -m j -V 4 -q 2 -lowpass 18.6 -b 192


Download / Скачать

Хотите скачать бесплатно? Зарегистрируйтесь на сайте (ссылка на регистрацию). Pirat.ca - самый быстрый торрент трекер в рунете!

Как скачивать  ·   Что такое торрент  ·   Рейтинг и ограничения

Пост 01-Авг-2012 00:49 (спустя 1 час)

Топик был перенесен из форума Наше кино (Трюм) в форум Российские фильмы

erchine
 

lis777

Корсар

Пост 01-Авг-2012 19:20 (спустя 19 часов)

[Q] 

[Профиль]  [ЛС] 

Voland57

Корсар

Пост 02-Авг-2012 18:39 (спустя 23 часа)

[Q] 

[Профиль]  [ЛС] 

luka444

Корсар

Пост 10-Авг-2012 07:39 (спустя 7 дней)

[Q] 

to eche govno!!!!!!
[Профиль]  [ЛС] 
Показать сообщения:    
Ответить на тему

Текущее время: Сегодня 03:47

Часовой пояс: GMT + 4



Вы не можете начинать темы
Вы не можете отвечать на сообщения
Вы не можете редактировать свои сообщения
Вы не можете удалять свои сообщения
Вы не можете голосовать в опросах
Вы не можете прикреплять файлы к сообщениям
Вы не можете скачивать файлы

▼ Вниз